<?xml version="1.0" standalone="no"?>
<!DOCTYPE svg PUBLIC "-//W3C//DTD SVG 1.1//EN" "http://www.w3.org/Graphics/SVG/1.1/DTD/svg11.dtd" >
<svg>
<metadata>
Created by FontForge 20090622 at Mon Apr 27 08:21:01 2015
 By deploy user
&#194;&#169; 1992, 1994, 1997, 2000, 2004 Adobe Systems Incorporated. All rights reserved.
</metadata>
<defs>
<font id="MyriadPro-Bold" horiz-adv-x="300" >
  <font-face 
    font-family="Myriad Pro"
    font-weight="700"
    font-stretch="normal"
    units-per-em="1000"
    panose-1="2 11 7 3 3 4 3 2 2 4"
    ascent="750"
    descent="-250"
    x-height="489"
    cap-height="674"
    bbox="-163 -250 1256 989"
    underline-thickness="50"
    underline-position="-50"
    unicode-range="U+0020-U+FB04"
  />
<missing-glyph horiz-adv-x="500" 
d="M0 0v700h500v-700h-500zM250 395l170 255h-340zM280 350l170 -255v510zM80 50h340l-170 255zM50 605v-510l170 255z" />
    <glyph glyph-name="f_f_j" unicode="ffj" horiz-adv-x="886" 
d="M782 695l-33 -114q-44 20 -100 20q-108 0 -108 -95v-17h298v-424q0 -150 -69 -214q-64 -60 -189 -60l-15 119q64 5 90 32q30 31 30 159v276h-144v-377h-152v377h-159v-377h-153v377h-64v112h64v11q0 99 63 158q55 52 147 52q42 0 85 -16l-34 -110q-22 10 -43 10
q-28 0 -45 -17q-21 -22 -21 -71v-17h160v21q0 99 70 155t185 56q83 0 137 -26z" />
    <glyph glyph-name="f_j" unicode="fj" horiz-adv-x="586" 
d="M231 0h-153v377h-64v112h64v21q0 99 70 155t186 56q94 0 144 -30l-29 -115q-46 25 -111 25q-108 0 -108 -95v-17h297v-424q0 -151 -69 -214q-64 -60 -189 -60l-14 119q63 5 89 32q17 17 24 52t7 107v276h-144v-377z" />
    <glyph glyph-name="f_f" unicode="ff" horiz-adv-x="650" 
d="M539 0h-152v377h-156v-377h-153v377h-64v112h64v10q0 101 56 157q54 54 150 54q35 0 65 -12l-21 -112q-21 7 -39 7q-59 0 -59 -86v-18h157v19q0 108 62 164q52 49 135 49q46 0 81 -10l-6 -117q-25 7 -50 7q-36 0 -53.5 -24t-17.5 -63v-25h98v-112h-97v-377z" />
    <glyph glyph-name="f_f_i" unicode="ffi" horiz-adv-x="899" 
d="M782 695l-33 -114q-44 20 -100 20q-108 0 -108 -95v-17h298v-489h-153v377h-144v-377h-152v377h-159v-377h-153v377h-64v112h64v11q0 99 63 158q55 52 147 52q42 0 85 -16l-34 -110q-22 10 -43 10q-28 0 -45 -17q-21 -22 -21 -71v-17h160v21q0 99 70 155t185 56
q83 0 137 -26z" />
    <glyph glyph-name="f_f_l" unicode="ffl" horiz-adv-x="899" 
d="M375 697l-32 -112q-21 8 -45 8q-31 0 -46 -17q-22 -22 -22 -70v-17h160v22q0 42 19.5 84.5t54.5 70.5q69 55 186 55q115 0 189 -41v-680h-153v598q-18 10 -57 10q-44 0 -66 -27.5t-22 -71.5v-20h89v-112h-88v-377h-152v377h-159v-377h-153v377h-64v112h64v9q0 101 62 157
q58 55 159 55q39 0 76 -13z" />
    <glyph glyph-name="f_i" unicode="fi" horiz-adv-x="588" 
d="M231 0h-153v377h-64v112h64v21q0 99 70 155t186 56q94 0 144 -30l-29 -115q-46 25 -111 25q-108 0 -108 -95v-17h297v-489h-152v377h-144v-377z" />
    <glyph glyph-name="f_l" unicode="fl" horiz-adv-x="588" 
d="M231 0h-153v377h-64v112h64v22q0 42 20 84.5t55 70.5q68 55 186 55q114 0 188 -41v-680h-152v598q-20 10 -58 10q-44 0 -65.5 -27.5t-21.5 -71.5v-20h88v-112h-87v-377z" />
    <glyph glyph-name=".notdef" horiz-adv-x="500" 
d="M0 0v700h500v-700h-500zM250 395l170 255h-340zM280 350l170 -255v510zM80 50h340l-170 255zM50 605v-510l170 255z" />
    <glyph glyph-name=".null" horiz-adv-x="0" 
 />
    <glyph glyph-name="nonmarkingreturn" horiz-adv-x="333" 
 />
    <glyph glyph-name="space" unicode=" " horiz-adv-x="202" 
 />
    <glyph glyph-name="exclam" unicode="!" horiz-adv-x="268" 
d="M191 221h-114l-23 453h159zM134 -11q-40 0 -65 26t-25 65q0 40 25 65.5t65 25.5q39 0 63.5 -25.5t25.5 -65.5q0 -40 -24.5 -65.5t-64.5 -25.5z" />
    <glyph glyph-name="quotedbl" unicode="&#x22;" horiz-adv-x="397" 
d="M35 685h135l-23 -271h-89zM227 685h135l-23 -271h-89z" />
    <glyph glyph-name="numbersign" unicode="#" horiz-adv-x="550" 
d="M223 271h91l16 112h-91zM182 0h-90l26 179h-81v92h97l16 112h-85v93h99l25 174h89l-25 -174h91l26 174h89l-26 -174h80v-93h-94l-16 -112h83v-92h-98l-25 -179h-90l25 179h-91z" />
    <glyph glyph-name="dollar" unicode="$" horiz-adv-x="555" 
d="M323 -87h-98v95q-104 5 -170 43l30 117q80 -44 166 -44q44 0 70 16.5t26 45.5q0 28 -25 48t-81 39q-88 29 -134 72t-46 111q0 67 45 114.5t124 63.5v95h98v-88q85 -4 145 -33l-29 -113q-80 34 -144 34q-45 0 -65.5 -16t-20.5 -40t27 -42.5t93 -43.5q89 -31 128 -75
t39 -112q0 -69 -47 -119.5t-131 -65.5v-102z" />
    <glyph glyph-name="percent" unicode="%" horiz-adv-x="880" 
d="M209 661q82 0 128.5 -53.5t46.5 -139.5q0 -97 -52.5 -152t-127.5 -55q-76 0 -126.5 53.5t-50.5 142.5t50 146.5t132 57.5zM206 578q-32 0 -49 -32.5t-17 -84.5q0 -53 17.5 -85t49.5 -32q64 0 64 117t-65 117zM293 -11h-81l373 672h82zM677 391q82 0 128.5 -53.5
t46.5 -139.5q0 -97 -52.5 -152t-127.5 -55q-76 0 -126 53.5t-51 142.5q0 89 50 146.5t132 57.5zM675 308q-33 0 -49.5 -32.5t-16.5 -84.5q-1 -52 16.5 -84.5t49.5 -32.5q64 0 64 117t-64 117z" />
    <glyph glyph-name="ampersand" unicode="&#x26;" horiz-adv-x="678" 
d="M672 0h-177l-44 48q-76 -59 -185 -59q-114 0 -174.5 56.5t-60.5 134.5q0 127 128 193v4q-51 56 -51 130q0 70 53.5 124t148.5 54q80 0 131.5 -43.5t51.5 -114.5q0 -106 -133 -173l-1 -4l52.5 -59.5l60.5 -66.5q42 66 57 164h136q-29 -163 -112 -256zM287 99q57 0 93 34
q-50 50 -152 165q-53 -38 -53 -93q0 -44 31 -75t81 -31zM305 590q-28 0 -44.5 -20.5t-16.5 -48.5q0 -46 46 -97q39 27 56.5 49t17.5 50q0 27 -15.5 47t-43.5 20z" />
    <glyph glyph-name="quotesingle" unicode="'" horiz-adv-x="205" 
d="M35 685h135l-23 -271h-89z" />
    <glyph glyph-name="parenleft" unicode="(" horiz-adv-x="314" 
d="M174 691h106q-101 -163 -101 -405q0 -234 101 -402h-106q-114 163 -114 403q1 241 114 404z" />
    <glyph glyph-name="parenright" unicode=")" horiz-adv-x="314" 
d="M141 -116h-106q101 169 101 404t-101 403h106q114 -166 114 -403q-1 -238 -114 -404z" />
    <glyph glyph-name="asterisk" unicode="*" horiz-adv-x="454" 
d="M284 685l88 -50l-108 -127l1 -3l159 32v-101l-160 28l-1 -3l109 -123l-89 -52l-57 155l-2 -1l-58 -154l-86 52l107 125v2l-157 -29v101l155 -31l1 2l-106 126l89 51l56 -153h2z" />
    <glyph glyph-name="plus" unicode="+" horiz-adv-x="596" 
d="M249 532h98v-218h209v-94h-209v-220h-98v220h-209v94h209v218z" />
    <glyph glyph-name="comma" unicode="," horiz-adv-x="260" 
d="M103 -110l-101 -9q51 146 72 284l155 10q-55 -169 -126 -285z" />
    <glyph glyph-name="hyphen" unicode="-" horiz-adv-x="322" 
d="M30 313h262v-101h-262v101z" />
    <glyph glyph-name="period" unicode="." horiz-adv-x="260" 
d="M139 -11q-39 0 -64 26t-25 66q0 41 25 67t65 26t64.5 -26t24.5 -67q0 -40 -25 -66t-65 -26z" />
    <glyph glyph-name="slash" unicode="/" horiz-adv-x="331" 
d="M117 -40h-101l214 725h101z" />
    <glyph glyph-name="zero" unicode="0" horiz-adv-x="555" 
d="M280 661q51 0 92 -17.5t68.5 -48t46 -73.5t27 -91t8.5 -103q0 -156 -63 -247.5t-184 -91.5q-120 0 -181 94t-62 241q0 149 63.5 243t184.5 94zM278 546q-44 0 -69 -56t-24 -166q-1 -220 94 -220q91 0 91 222q0 220 -92 220z" />
    <glyph glyph-name="one" unicode="1" horiz-adv-x="555" 
d="M236 0v515h-2l-124 -59l-25 114l172 80h126v-650h-147z" />
    <glyph glyph-name="two" unicode="2" horiz-adv-x="555" 
d="M503 0h-461v92l84 76q116 103 164 162.5t49 113.5q0 42 -26.5 68.5t-80.5 26.5q-68 0 -139 -54l-43 109q89 67 213 67q108 0 168 -56.5t60 -147.5q0 -75 -45 -140.5t-128 -139.5l-60 -50v-2h245v-125z" />
    <glyph glyph-name="three" unicode="3" horiz-adv-x="555" 
d="M38 35l31 114q77 -40 151 -40q57 0 88 24.5t31 62.5q0 45 -38 69t-93 24h-62v109h59q46 1 81 19t35 56q0 30 -25 49t-71 19q-70 0 -136 -39l-31 110q32 20 86.5 34.5t114.5 14.5q101 0 158.5 -46t57.5 -116q0 -109 -119 -151v-2q61 -11 101 -53.5t40 -104.5
q0 -88 -72 -143.5t-194 -55.5q-120 0 -193 46z" />
    <glyph glyph-name="four" unicode="4" horiz-adv-x="555" 
d="M455 0h-144v155h-288v99l246 396h186v-381h78v-114h-78v-155zM165 269h146v144q0 51 5 121h-4q-5 -9 -26 -53t-34 -68l-87 -142v-2z" />
    <glyph glyph-name="five" unicode="5" horiz-adv-x="555" 
d="M476 650v-125h-252l-14 -100q14 2 42 2q105 0 171 -47q79 -53 79 -163q0 -95 -76 -161.5t-203 -66.5q-111 0 -181 37l27 114q66 -32 147 -32q53 0 91.5 25.5t38.5 73.5q0 108 -183 108q-47 0 -88 -6l43 341h358z" />
    <glyph glyph-name="six" unicode="6" horiz-adv-x="555" 
d="M457 659v-117q-21 1 -59 -2q-95 -8 -146.5 -50.5t-65.5 -105.5h3q50 52 138 52q85 0 143 -57t58 -155t-68 -166.5t-172 -68.5q-124 0 -191 80.5t-67 203.5q0 182 115 289q97 88 251 96q37 3 61 1zM286 101q40 0 64 32.5t24 82.5q0 48 -25 80t-72 32q-30 0 -54 -16
t-36 -42q-6 -12 -6 -38q2 -56 29 -93.5t76 -37.5z" />
    <glyph glyph-name="seven" unicode="7" horiz-adv-x="555" 
d="M49 650h459v-96l-268 -554h-161l268 523v2h-298v125z" />
    <glyph glyph-name="eight" unicode="8" horiz-adv-x="555" 
d="M273 -11q-116 0 -178.5 54t-62.5 127q0 112 116 163v3q-94 48 -94 142q0 81 65 132t164 51q106 0 160.5 -50t54.5 -117q0 -44 -24 -82t-70 -61v-3q52 -20 85.5 -61.5t33.5 -100.5q0 -89 -68.5 -143t-181.5 -54zM279 94q40 0 64.5 23t24.5 58q0 80 -102 107
q-37 -10 -58 -36t-21 -61q-1 -37 25 -64t67 -27zM276 558q-37 0 -58 -21.5t-21 -53.5q0 -60 92 -88q28 8 47 30.5t19 52.5q0 33 -20 56.5t-59 23.5z" />
    <glyph glyph-name="nine" unicode="9" horiz-adv-x="555" 
d="M90 -9v119q26 -3 66 0q77 5 128 40q63 44 82 120l-3 1q-45 -47 -130 -47t-144 55.5t-59 147.5q0 97 69.5 165.5t175.5 68.5q120 0 183 -79.5t63 -200.5q0 -195 -114 -299q-94 -85 -248 -91q-30 -2 -69 0zM271 550q-39 0 -64.5 -31.5t-24.5 -82.5q0 -45 24 -74.5t68 -29.5
q58 0 84 43q8 14 8 38q0 58 -23.5 97.5t-71.5 39.5z" />
    <glyph glyph-name="colon" unicode=":" horiz-adv-x="260" 
d="M139 312q-39 0 -64 26t-25 65q0 41 25 66.5t65 25.5t64 -25.5t25 -66.5q0 -39 -25 -65t-65 -26zM139 -11q-39 0 -64 26t-25 65q0 40 25 66t65 26q39 0 63.5 -25.5t25.5 -66.5q0 -39 -25 -65t-65 -26z" />
    <glyph glyph-name="semicolon" unicode=";" horiz-adv-x="260" 
d="M102 -110l-100 -9q50 143 73 284l153 10q-55 -169 -126 -285zM145 312q-40 0 -65 26t-24 65q0 41 24.5 66.5t64.5 25.5t64 -25.5t25 -66.5q0 -40 -24.5 -65.5t-64.5 -25.5z" />
    <glyph glyph-name="less" unicode="&#x3c;" horiz-adv-x="596" 
d="M58 223v86l480 223v-106l-363 -159v-2l363 -159v-106z" />
    <glyph glyph-name="equal" unicode="=" horiz-adv-x="596" 
d="M556 325h-516v93h516v-93zM556 118h-516v93h516v-93z" />
    <glyph glyph-name="greater" unicode="&#x3e;" horiz-adv-x="596" 
d="M538 312v-92l-480 -220v106l371 159v2l-371 159v106z" />
    <glyph glyph-name="question" unicode="?" horiz-adv-x="445" 
d="M271 218h-133l-1 26q-5 81 59 157q30 35 44 58t14 46q0 57 -73 60q-56 0 -99 -30l-34 109q70 41 167 41q94 0 143 -44.5t49 -111.5q0 -35 -15.5 -69.5t-29 -51.5t-40.5 -47q-52 -58 -51 -125v-18zM201 -11q-39 0 -64 26t-25 65q0 40 25 65.5t64 25.5q40 0 64.5 -25.5
t25.5 -65.5q0 -39 -25 -65t-65 -26z" />
    <glyph glyph-name="at" unicode="@" horiz-adv-x="770" 
d="M443 250l14 95q-16 4 -31 4q-49 0 -83.5 -42t-34.5 -100q0 -62 50 -62q28 0 53 31t32 74zM528 -10l18 -58q-80 -36 -183 -36q-130 0 -221 86.5t-91 228.5q0 158 104.5 269.5t269.5 111.5q132 0 217 -81.5t85 -207.5q0 -108 -53.5 -173t-136.5 -65q-79 0 -86 77h-2
q-47 -77 -129 -77q-50 0 -81 35t-31 95q0 95 65 164t169 69q74 0 119 -25l-30 -185q-15 -86 25 -87q36 -1 66.5 44t30.5 125q0 101 -63 166t-176 65q-119 0 -203 -86t-84 -225q0 -123 71 -192.5t185 -69.5q84 0 145 32z" />
    <glyph glyph-name="A" unicode="A" horiz-adv-x="656" 
d="M416 173h-193l-48 -173h-158l206 674h200l209 -674h-164zM245 287h149l-42 143q-9 30 -34 130h-2l-14 -60.5t-17 -69.5z" />
    <glyph glyph-name="B" unicode="B" horiz-adv-x="604" 
d="M66 3v662q70 14 197 14q135 0 199 -38q81 -43 81 -132q0 -47 -28 -85.5t-83 -58.5v-2q60 -16 97 -59.5t37 -106.5q0 -86 -70 -143q-77 -61 -265 -61q-97 0 -165 10zM217 564v-157h50q59 0 91 22.5t32 60.5q0 78 -108 78q-39 0 -65 -4zM217 298v-190q15 -2 59 -2
q57 0 93.5 23.5t36.5 73.5q0 48 -38 71.5t-99 23.5h-52z" />
    <glyph glyph-name="C" unicode="C" horiz-adv-x="595" 
d="M538 138l23 -119q-58 -29 -173 -29q-169 0 -261 93.5t-92 243.5q0 167 104.5 262.5t263.5 95.5q108 0 166 -30l-31 -121q-60 25 -128 25q-95 0 -155 -57.5t-60 -165.5q0 -102 57.5 -161t158.5 -59q72 0 127 22z" />
    <glyph glyph-name="D" unicode="D" horiz-adv-x="696" 
d="M66 3v662q87 14 206 14q180 0 276 -72q114 -85 114 -254q0 -178 -112 -273q-105 -87 -311 -87q-97 0 -173 10zM219 556v-441q13 -3 53 -3q107 -1 167.5 58.5t60.5 177.5q1 103 -55.5 158.5t-156.5 55.5q-43 0 -69 -6z" />
    <glyph glyph-name="E" unicode="E" horiz-adv-x="534" 
d="M467 409v-124h-248v-160h277v-125h-430v674h416v-125h-263v-140h248z" />
    <glyph glyph-name="F" unicode="F" horiz-adv-x="527" 
d="M66 0v674h412v-125h-259v-154h242v-124h-242v-271h-153z" />
    <glyph glyph-name="G" unicode="G" horiz-adv-x="682" 
d="M629 386v-355q-112 -38 -225 -38q-180 0 -274 91q-97 90 -95 245q1 164 108 258t277 94q119 0 187 -33l-32 -122q-67 29 -157 29q-99 0 -161 -56t-62 -162q0 -103 58.5 -162t153.5 -59q55 0 75 10v141h-104v119h251z" />
    <glyph glyph-name="H" unicode="H" horiz-adv-x="689" 
d="M66 674h153v-259h251v259h152v-674h-152v282h-251v-282h-153v674z" />
    <glyph glyph-name="I" unicode="I" horiz-adv-x="285" 
d="M66 674h153v-674h-153v674z" />
    <glyph glyph-name="J" unicode="J" horiz-adv-x="411" 
d="M198 250v424h152v-426q0 -138 -61.5 -198.5t-178.5 -60.5q-63 0 -111 16l17 123q36 -12 78 -12q52 0 78 29.5t26 104.5z" />
    <glyph glyph-name="K" unicode="K" horiz-adv-x="614" 
d="M66 0v674h151v-298h3l46 74l153 224h187l-223 -287l235 -387h-178l-165 291l-58 -71v-220h-151z" />
    <glyph glyph-name="L" unicode="L" horiz-adv-x="511" 
d="M66 0v674h153v-546h268v-128h-421z" />
    <glyph glyph-name="M" unicode="M" horiz-adv-x="846" 
d="M646 0l-10 258q-6 162 -6 277h-3q-31 -128 -75 -261l-82 -263h-119l-72 261q-38 136 -61 263h-2q-1 -12 -5 -120.5t-7 -158.5l-12 -256h-141l43 674h203l66 -225q38 -142 57 -241h3q34 140 64 242l72 224h199l37 -674h-149z" />
    <glyph glyph-name="N" unicode="N" horiz-adv-x="690" 
d="M206 0h-140v674h178l140 -247q63 -112 110 -231h3q-13 116 -13 281v197h140v-674h-160l-144 260q-71 128 -117 238l-3 -1q6 -133 6 -294v-203z" />
    <glyph glyph-name="O" unicode="O" horiz-adv-x="717" 
d="M363 685q150 0 235 -97.5t85 -243.5q0 -164 -91 -259.5t-240 -95.5q-146 0 -231.5 97.5t-85.5 245.5q0 154 90.5 253.5t237.5 99.5zM359 564q-76 0 -119.5 -64t-43.5 -165q0 -100 44.5 -162.5t119.5 -62.5t118.5 64t43.5 165q0 95 -43.5 160t-119.5 65z" />
    <glyph glyph-name="P" unicode="P" horiz-adv-x="581" 
d="M66 0v665q82 14 206 14q138 0 206 -54q72 -57 72 -156q0 -101 -62 -160q-75 -71 -219 -71q-31 0 -52 3v-241h-151zM217 558v-199q17 -4 51 -4q61 0 96 29t35 81q0 47 -31 73t-88 26q-41 0 -63 -6z" />
    <glyph glyph-name="Q" unicode="Q" horiz-adv-x="717" 
d="M686 2l-44 -118q-133 39 -266 95q-21 8 -47 10q-123 8 -208.5 97t-85.5 245q0 154 90.5 254t238.5 100q149 0 234 -97.5t85 -242.5q0 -110 -45 -189.5t-115 -111.5v-4q52 -15 163 -38zM359 110q76 0 119.5 64t43.5 165q0 96 -43.5 160.5t-118.5 64.5q-76 0 -120 -65
t-44 -163q-1 -98 43.5 -162t119.5 -64z" />
    <glyph glyph-name="R" unicode="R" horiz-adv-x="593" 
d="M66 0v665q86 14 203 14q151 0 218 -53q62 -50 62 -141q0 -60 -35.5 -104t-83.5 -62v-3q62 -25 90 -126q49 -179 55 -190h-156q-16 27 -47 157q-13 62 -37 84.5t-72 23.5h-46v-265h-151zM217 561v-186h60q57 0 89 26t32 71q0 92 -112 94q-42 0 -69 -5z" />
    <glyph glyph-name="S" unicode="S" horiz-adv-x="540" 
d="M40 31l31 126q82 -42 169 -42q52 0 79.5 19.5t27.5 53.5q0 31 -25.5 52t-87.5 43q-185 64 -185 199q0 88 69 145.5t186 57.5q96 0 172 -34l-34 -123q-66 32 -141 32q-47 0 -72.5 -18.5t-25.5 -46.5q0 -30 27 -49t98 -46q90 -33 132.5 -81.5t42.5 -119.5q0 -90 -70 -149.5
t-202 -59.5q-55 0 -107.5 12t-83.5 29z" />
    <glyph glyph-name="T" unicode="T" horiz-adv-x="548" 
d="M196 0v546h-181v128h518v-128h-184v-546h-153z" />
    <glyph glyph-name="U" unicode="U" horiz-adv-x="682" 
d="M65 674h153v-388q0 -86 31.5 -130.5t90.5 -44.5q124 0 124 175v388h152v-378q0 -153 -73 -230t-208 -77q-270 0 -270 309v376z" />
    <glyph glyph-name="V" unicode="V" horiz-adv-x="636" 
d="M403 0h-178l-216 674h167l82 -285q42 -145 60 -241h3q24 114 61 238l86 288h162z" />
    <glyph glyph-name="W" unicode="W" horiz-adv-x="888" 
d="M342 0h-167l-160 674h163l51 -278q14 -77 40 -235h2q13 84 44 237l57 276h162l54 -284q20 -104 36 -226h2q6 47 39 234l55 276h155l-174 -674h-165l-57 290q-23 119 -32 208h-2q-20 -128 -39 -208z" />
    <glyph glyph-name="X" unicode="X" horiz-adv-x="613" 
d="M597 0h-176l-61 122l-60 121h-2q-8 -23 -52 -121l-56 -122h-174l195 341l-188 333h175l59 -123q28 -58 51 -112h2q16 44 46 112l57 123h174l-190 -329z" />
    <glyph glyph-name="Y" unicode="Y" horiz-adv-x="603" 
d="M374 0h-152v276l-213 398h174l69 -162q22 -51 52 -129h2q16 46 51 129l68 162h171l-222 -393v-281z" />
    <glyph glyph-name="Z" unicode="Z" horiz-adv-x="577" 
d="M23 0v82l321 462v4h-291v126h489v-88l-314 -456v-4h319v-126h-524z" />
    <glyph glyph-name="bracketleft" unicode="[" horiz-adv-x="314" 
d="M273 -112h-205v797h205v-84h-95v-629h95v-84z" />
    <glyph glyph-name="backslash" unicode="\" horiz-adv-x="330" 
d="M314 -40h-100l-202 725h101z" />
    <glyph glyph-name="bracketright" unicode="]" horiz-adv-x="314" 
d="M42 686h204v-798h-204v84h95v630h-95v84z" />
    <glyph glyph-name="asciicircum" unicode="^" horiz-adv-x="596" 
d="M554 177h-109l-146 356h-3l-147 -356h-107l210 473h92z" />
    <glyph glyph-name="underscore" unicode="_" horiz-adv-x="500" 
d="M0 -75h500v-50h-500v50z" />
    <glyph glyph-name="grave" unicode="`" 
d="M4 702h140l86 -152h-104z" />
    <glyph glyph-name="a" unicode="a" horiz-adv-x="528" 
d="M476 0h-137l-9 49h-3q-49 -60 -140 -60q-71 0 -114.5 44.5t-43.5 105.5q0 93 76.5 140.5t210.5 46.5v7q0 63 -89 63q-76 0 -135 -37l-28 98q77 43 190 43q114 0 164.5 -58t50.5 -153v-170q0 -81 7 -119zM321 178v53q-142 2 -142 -77q0 -28 16.5 -43t43.5 -15
q28 0 49.5 16t29.5 40q3 12 3 26z" />
    <glyph glyph-name="b" unicode="b" horiz-adv-x="598" 
d="M186 0h-129q4 64 4 146v564h152v-279h2q48 69 148 69q89 0 146 -68t56 -179q0 -125 -66.5 -194.5t-157.5 -69.5q-99 0 -147 79h-2zM213 280v-72q0 -15 3 -27q8 -31 32.5 -51.5t56.5 -20.5q49 0 77 36t28 102q0 60 -27 98t-78 38q-31 0 -56.5 -21t-32.5 -54q-3 -14 -3 -28
z" />
    <glyph glyph-name="c" unicode="c" horiz-adv-x="451" 
d="M410 124l18 -112q-50 -22 -136 -22q-119 0 -189 67.5t-70 182.5q0 112 74 186t206 74q65 0 116 -19l-24 -113q-34 15 -85 15q-60 0 -96 -38.5t-35 -98.5q0 -65 38 -101t96 -36q49 0 87 15z" />
    <glyph glyph-name="d" unicode="d" horiz-adv-x="596" 
d="M383 710h152v-564q0 -80 4 -146h-135l-7 72h-2q-23 -40 -63.5 -61.5t-89.5 -21.5q-89 0 -149 69.5t-60 181.5q-1 119 63 189.5t156 70.5q93 0 129 -55h2v265zM383 218v64q0 11 -2 27q-7 32 -31 53.5t-58 21.5q-50 0 -77.5 -39.5t-27.5 -99.5q0 -62 28.5 -98.5t75.5 -36.5
q33 0 57 20.5t31 52.5q4 15 4 35z" />
    <glyph glyph-name="e" unicode="e" horiz-adv-x="528" 
d="M493 196h-315q4 -45 42.5 -69t95.5 -24q72 0 135 20l20 -103q-75 -30 -177 -30q-123 0 -192 66.5t-69 182.5q0 65 25 122.5t83 98t139 40.5q110 0 164 -71t54 -173q0 -32 -5 -60zM177 300h180q0 37 -19.5 68t-66.5 31q-43 0 -66.5 -30.5t-27.5 -68.5z" />
    <glyph glyph-name="f" unicode="f" horiz-adv-x="341" 
d="M231 0h-153v377h-64v112h64v19q0 108 62 164q52 49 135 49q46 0 81 -10l-6 -117q-23 7 -49 7q-36 0 -53.5 -24t-17.5 -63v-25h98v-112h-97v-377z" />
    <glyph glyph-name="g" unicode="g" horiz-adv-x="585" 
d="M396 489h132q-4 -62 -4 -145v-273q0 -154 -74 -220q-70 -60 -199 -60q-109 0 -176 38l30 115q64 -37 142 -37q57 0 92 32t35 97v32h-2q-45 -64 -132 -64q-91 0 -149 66.5t-58 172.5q0 115 64.5 186t157.5 71q91 0 134 -69h2zM372 218v72q0 16 -3 28q-8 31 -29.5 49
t-52.5 18q-43 0 -71.5 -37t-28.5 -102q0 -57 26.5 -93.5t73.5 -36.5q29 0 50.5 17.5t29.5 44.5q5 14 5 40z" />
    <glyph glyph-name="h" unicode="h" horiz-adv-x="586" 
d="M61 0v710h152v-279h2q23 30 60 50q35 19 79 19q77 0 124 -54t47 -160v-286h-152v269q0 108 -79 108q-54 0 -76 -53q-5 -12 -5 -34v-290h-152z" />
    <glyph glyph-name="i" unicode="i" horiz-adv-x="274" 
d="M213 0h-152v489h152v-489zM137 702q36 0 58 -21.5t23 -55.5q0 -32 -22.5 -54t-59.5 -22q-35 0 -57.5 22t-21.5 54q-1 33 21.5 55t58.5 22z" />
    <glyph glyph-name="j" unicode="j" horiz-adv-x="291" 
d="M-25 -209l-15 119q64 5 90 32q30 31 30 159v388h153v-424q0 -150 -69 -214q-64 -60 -189 -60zM157 702q36 0 57.5 -21.5t22.5 -55.5q0 -32 -22.5 -54t-59.5 -22q-35 0 -57 22t-22 54q0 34 22 55.5t59 21.5z" />
    <glyph glyph-name="k" unicode="k" horiz-adv-x="542" 
d="M213 710v-427h2q15 28 35 59l99 147h183l-175 -198l200 -291h-187l-118 201l-39 -48v-153h-152v710h152z" />
    <glyph glyph-name="l" unicode="l" horiz-adv-x="275" 
d="M61 0v710h152v-710h-152z" />
    <glyph glyph-name="m" unicode="m" horiz-adv-x="860" 
d="M61 0v333q0 70 -4 156h128l7 -66h3q52 77 148 77q47 0 82.5 -22t51.5 -61h2q26 37 63 59q40 24 93 24q74 0 119.5 -53.5t45.5 -158.5v-288h-148v266q0 112 -72 112q-25 0 -43.5 -15t-26.5 -38q-6 -17 -6 -39v-286h-148v274q0 104 -70 104q-51 0 -71 -55q-6 -14 -6 -38
v-285h-148z" />
    <glyph glyph-name="n" unicode="n" horiz-adv-x="586" 
d="M61 0v333q0 70 -4 156h132l7 -67h3q19 30 58 54t93 24q79 0 127 -53t48 -157v-290h-152v271q0 106 -77 106q-29 0 -48.5 -16.5t-28.5 -40.5q-6 -14 -6 -38v-282h-152z" />
    <glyph glyph-name="o" unicode="o" horiz-adv-x="577" 
d="M294 500q112 0 181 -69.5t69 -180.5q0 -126 -75.5 -193.5t-182.5 -67.5q-110 0 -181.5 68t-71.5 184q0 118 71.5 188.5t189.5 70.5zM290 392q-51 0 -75.5 -43t-24.5 -104q0 -65 26.5 -106t73.5 -41q44 0 70.5 40.5t26.5 106.5q0 61 -24.5 104t-72.5 43z" />
    <glyph glyph-name="p" unicode="p" horiz-adv-x="598" 
d="M61 -198v523q0 74 -4 164h132l7 -68h2q55 79 163 79q84 0 143.5 -68t59.5 -181q0 -125 -66 -193.5t-156 -68.5q-88 0 -127 56h-2v-243h-152zM213 277v-67q0 -18 3 -32q8 -31 32.5 -51.5t56.5 -20.5q49 0 77 37.5t28 100.5q0 61 -27 99t-76 38q-32 0 -58 -21.5t-33 -55.5
q-3 -12 -3 -27z" />
    <glyph glyph-name="q" unicode="q" horiz-adv-x="595" 
d="M383 -198v259h-2q-49 -72 -145 -72q-83 0 -143 68t-60 181q0 123 65 192.5t151 69.5q95 0 136 -68h2l4 57h147q-3 -141 -3 -147v-540h-152zM383 211v73q0 13 -3 25q-6 31 -30 52t-57 21q-51 0 -78 -38t-27 -100t27.5 -98.5t75.5 -36.5q32 0 56 19.5t32 49.5q4 13 4 33z
" />
    <glyph glyph-name="r" unicode="r" horiz-adv-x="380" 
d="M61 0v328q0 77 -4 161h131l5 -90h4q17 50 55 75.5t77 25.5q21 0 32 -2v-143q-22 4 -41 4q-42 0 -69 -20.5t-35 -56.5q-3 -15 -3 -34v-248h-152z" />
    <glyph glyph-name="s" unicode="s" horiz-adv-x="434" 
d="M33 24l27 109q23 -14 61 -25.5t70 -11.5q65 0 65 41q0 19 -14.5 30.5t-57.5 25.5q-141 47 -139 147q0 69 55 114.5t144 45.5q82 0 138 -28l-27 -105q-51 28 -106 28q-58 0 -58 -40q0 -17 16.5 -28.5t62.5 -27.5q69 -24 100.5 -60t32.5 -91q0 -71 -55 -114.5t-157 -43.5
q-95 0 -158 34z" />
    <glyph glyph-name="t" unicode="t" horiz-adv-x="367" 
d="M82 595l149 34v-140h109v-112h-109v-177q0 -46 13 -66t47 -20q23 0 45 4l1 -115q-33 -13 -99 -13q-74 0 -114 42q-42 43 -42 145v200h-65v112h65v106z" />
    <glyph glyph-name="u" unicode="u" horiz-adv-x="583" 
d="M522 489v-332q0 -75 4 -157h-132l-7 69h-3q-51 -80 -153 -80q-79 0 -125.5 52.5t-46.5 160.5v287h153v-263q0 -114 76 -114q54 0 76 53q5 11 5 33v291h153z" />
    <glyph glyph-name="v" unicode="v" horiz-adv-x="530" 
d="M9 489h165l66 -227q17 -59 28 -119h3q13 67 27 119l63 227h160l-182 -489h-152z" />
    <glyph glyph-name="w" unicode="w" horiz-adv-x="759" 
d="M11 489h155l39 -200q18 -94 28 -161h2q10 56 36 160l52 201h120l49 -195q26 -110 36 -166h2q8 67 28 167l42 194h149l-150 -489h-143l-46 172q-17 68 -31 152h-2q-12 -81 -32 -152l-49 -172h-143z" />
    <glyph glyph-name="x" unicode="x" horiz-adv-x="519" 
d="M7 489h170l48 -81l40 -73h2l38 75l43 79h165l-161 -233l163 -256h-172l-49 88q-14 24 -38 74h-3q-5 -12 -11.5 -24.5l-14 -27l-11.5 -22.5l-46 -88h-167l166 249z" />
    <glyph glyph-name="y" unicode="y" horiz-adv-x="523" 
d="M6 489h169l73 -240q18 -67 24 -91h3q4 15 11.5 48t10.5 43l60 240h163l-114 -322q-50 -140 -89.5 -211t-82.5 -110q-65 -56 -147 -67l-32 129q31 5 66 26q38 20 63 61q8 11 8 22t-7 25z" />
    <glyph glyph-name="z" unicode="z" horiz-adv-x="469" 
d="M22 0v87l154 193q32 38 78 87v2h-215v120h400v-91l-147 -185q-58 -69 -80 -90v-2h235v-121h-425z" />
    <glyph glyph-name="braceleft" unicode="{" horiz-adv-x="314" 
d="M30 249v77q46 1 61 20t15 48q0 24 -6 78q-5 45 -5 79q0 135 152 135h35v-85h-18q-61 0 -61 -71q0 -4 5 -57q5 -50 5 -68q1 -54 -20 -80t-65 -36v-2q44 -10 65 -36t20 -81q0 -18 -5 -70q-5 -50 -5 -56q0 -72 61 -72h18v-84h-36q-151 0 -151 136q0 34 5 79q6 54 6 78
q0 18 -4 30.5t-22 24.5t-50 13z" />
    <glyph glyph-name="bar" unicode="|" horiz-adv-x="283" 
d="M88 750h106v-1000h-106v1000z" />
    <glyph glyph-name="braceright" unicode="}" horiz-adv-x="314" 
d="M284 326v-77q-76 -2 -76 -68q0 -24 6 -78t6 -79q0 -136 -152 -136h-36v84h18q61 1 61 72q0 23 -5 56q-5 53 -5 70q-1 55 20.5 81t65.5 36v2q-44 10 -65.5 35.5t-20.5 80.5q0 18 5 68q5 35 5 57q0 70 -61 71h-18v85h35q153 0 153 -135q0 -25 -6 -79t-6 -78q0 -29 15 -48
t61 -20z" />
    <glyph glyph-name="asciitilde" unicode="~" horiz-adv-x="596" 
d="M138 192h-95q-1 96 36.5 141.5t102.5 45.5q34 0 63.5 -10.5t76.5 -37.5q71 -39 95 -39q37 0 41 81h95q4 -100 -33 -144.5t-100 -44.5q-54 0 -140 48q-71 42 -95 42q-42 0 -47 -82z" />
    <glyph glyph-name="uni00A0" unicode="&#xa0;" horiz-adv-x="202" 
 />
    <glyph glyph-name="exclamdown" unicode="&#xa1;" horiz-adv-x="268" 
d="M214 -198h-159l22 455h115zM134 495q40 0 64.5 -25.5t24.5 -66.5q0 -39 -24.5 -64.5t-64.5 -25.5q-39 0 -64 25.5t-25 64.5q0 40 25 66t64 26z" />
    <glyph glyph-name="cent" unicode="&#xa2;" horiz-adv-x="555" 
d="M377 -12h-98v98q-93 15 -148 77q-56 64 -56 164q0 93 54 162t150 88v96h99v-91q53 -3 95 -20l-24 -112q-36 18 -89 18q-59 0 -94 -37t-35 -98q0 -65 37 -99.5t93 -34.5q55 0 99 17l18 -109q-40 -20 -101 -23v-96z" />
    <glyph glyph-name="sterling" unicode="&#xa3;" horiz-adv-x="555" 
d="M507 0h-456v81q44 18 78 58.5t34 88.5q0 19 -3 40h-98v103h80q-8 40 -8 81q0 94 62.5 151.5t163.5 57.5q74 0 118 -24l-25 -115q-31 18 -84 18q-49 0 -71 -26.5t-22 -67.5q0 -38 9 -75h137v-103h-124q2 -40 -9 -71q-15 -41 -49 -71v-2h267v-124z" />
    <glyph glyph-name="currency" unicode="&#xa4;" horiz-adv-x="555" 
d="M278 550q68 0 116 -35l77 83l66 -68l-87 -78q32 -55 32 -116q0 -72 -34 -121l84 -81l-65 -66l-74 87q-47 -39 -117 -39q-72 0 -116 38l-72 -86l-65 66l83 79q-36 52 -36 120q0 65 35 119l-87 77l67 70l77 -86q46 37 116 37zM276 448q-40 0 -66 -31.5t-26 -82.5
q0 -55 28.5 -86t63.5 -31q37 0 65 30.5t28 87.5q0 49 -26.5 81t-66.5 32z" />
    <glyph glyph-name="yen" unicode="&#xa5;" horiz-adv-x="555" 
d="M344 0h-143v160h-155v71h155v64h-155v71h119l-163 284h163l70 -160q9 -19 42 -109h2q1 3 17 45t26 65l71 159h160l-171 -284h119v-71h-157v-64h157v-71h-157v-160z" />
    <glyph glyph-name="brokenbar" unicode="&#xa6;" horiz-adv-x="283" 
d="M88 174h106v-350h-106v350zM88 674h106v-350h-106v350z" />
    <glyph glyph-name="section" unicode="&#xa7;" horiz-adv-x="561" 
d="M163 343q0 -48 87 -78l44 -15t45.5 -16t28.5 -12q29 19 29 52q0 45 -69 72l-43 15.5l-51 19t-35 14.5q-36 -19 -36 -52zM464 654l-24 -92q-58 28 -131 28q-43 0 -66.5 -13t-23.5 -35t25 -37.5t82 -32.5q94 -29 142 -66.5t48 -108.5q0 -76 -73 -122q17 -13 30.5 -37
t13.5 -55q0 -43 -21 -76t-55 -50.5t-70.5 -25.5t-74.5 -8q-117 0 -187 44l29 92q72 -42 151 -42q41 0 66 13.5t25 38.5q0 24 -23.5 40t-82.5 35q-96 29 -147.5 66.5t-51.5 105.5q0 34 21.5 68t61.5 54q-17 13 -28.5 38.5t-11.5 52.5q0 73 61.5 114t156.5 41t158 -30z" />
    <glyph glyph-name="dieresis" unicode="&#xa8;" 
d="M46 557q-30 0 -51 20.5t-21 49.5q0 30 21 50.5t51 20.5q29 0 48.5 -20t19.5 -51q0 -29 -19.5 -49.5t-48.5 -20.5zM256 557q-30 0 -50.5 20.5t-20.5 49.5q0 31 20.5 51t50.5 20q29 0 49 -20t20 -51q0 -29 -19.5 -49.5t-49.5 -20.5z" />
    <glyph glyph-name="copyright" unicode="&#xa9;" horiz-adv-x="677" 
d="M340 648q128 0 216.5 -90t88.5 -218q0 -129 -88.5 -219.5t-216.5 -90.5q-129 0 -218.5 90.5t-89.5 219.5q0 128 89.5 218t218.5 90zM339 591q-101 0 -171.5 -73.5t-70.5 -178.5t70.5 -178.5t171.5 -73.5q100 0 170.5 73.5t70.5 178.5t-70.5 178.5t-170.5 73.5zM474 492
l-15 -53q-38 22 -95 22q-58 0 -91 -33t-33 -91q0 -55 34 -90t89 -35q63 0 100 25l15 -52q-49 -32 -124 -32q-86 0 -135.5 51t-49.5 130q0 83 57.5 134.5t137.5 51.5q35 0 67.5 -8.5t42.5 -19.5z" />
    <glyph glyph-name="ordfeminine" unicode="&#xaa;" horiz-adv-x="378" 
d="M341 266h-94l-7 33h-2q-38 -38 -99 -38q-48 0 -77 28t-29 70q0 57 53 86.5t144 29.5v7q0 7 -3.5 14.5t-18.5 15.5t-39 8q-53 0 -92 -25l-20 64q53 32 132 32q76 0 111.5 -39.5t35.5 -100.5v-107q0 -54 5 -78zM234 381v35q-99 0 -99 -49q0 -16 12.5 -27t31.5 -11
q16 0 30 8.5t20 21.5q5 12 5 22z" />
    <glyph glyph-name="guillemotleft" unicode="&#xab;" horiz-adv-x="465" 
d="M248 443l-119 -191l119 -191h-106l-116 191l116 191h106zM442 443l-119 -191l119 -191h-106l-116 191l116 191h106z" />
    <glyph glyph-name="logicalnot" unicode="&#xac;" horiz-adv-x="596" 
d="M40 422h516v-316h-97v223h-419v93z" />
    <glyph glyph-name="uni00AD" unicode="&#xad;" horiz-adv-x="291" 
d="M30 313h262v-101h-262v101z" />
    <glyph glyph-name="registered" unicode="&#xae;" horiz-adv-x="459" 
d="M208 489v-58h-49v159q28 5 70 5q43 0 64 -12q17 -12 17 -35q0 -26 -37 -36v-2q26 -9 33 -41q6 -28 11 -38h-55q-5 6 -11 34q-4 24 -27 24h-16zM210 560v-38h14q30 0 30 19q0 20 -28 20q-3 0 -8.5 -0.5t-7.5 -0.5zM230 685q74 0 125.5 -50.5t51.5 -121.5
q0 -72 -51.5 -122.5t-125.5 -50.5t-126 50.5t-52 122.5q0 71 52 121.5t126 50.5zM229 642q-53 0 -88.5 -38t-35.5 -92t35.5 -91.5t89.5 -37.5t89.5 37.5t35.5 92.5q0 54 -36 91.5t-90 37.5z" />
    <glyph glyph-name="macron" unicode="&#xaf;" 
d="M25 665h251v-83h-251v83z" />
    <glyph glyph-name="degree" unicode="&#xb0;" horiz-adv-x="356" 
d="M179 685q66 0 109 -42.5t43 -103.5q0 -63 -45 -105.5t-108 -42.5q-65 0 -108 42t-43 103q-1 62 43.5 105.5t108.5 43.5zM179 615q-32 0 -52 -23t-20 -55t20.5 -54t51.5 -22t51 22t20 55q0 31 -19 54t-52 23z" />
    <glyph glyph-name="plusminus" unicode="&#xb1;" horiz-adv-x="596" 
d="M249 579h98v-173h209v-93h-209v-176h-98v176h-209v93h209v173zM40 93h516v-93h-516v93z" />
    <glyph glyph-name="twosuperior" unicode="&#xb2;" horiz-adv-x="352" 
d="M15 443v56l61 55q81 72 97 93q20 26 20 51q0 22 -16 35.5t-43 13.5q-45 0 -86 -28l-30 76q62 43 145 43q73 0 113 -34t40 -87q0 -34 -18.5 -66t-38 -50t-58.5 -50l-24 -20v-2h146v-86h-308z" />
    <glyph glyph-name="threesuperior" unicode="&#xb3;" horiz-adv-x="347" 
d="M47 733l-22 73q55 32 140 32q69 0 107 -28t38 -71q0 -31 -23 -54.5t-60 -34.5v-2q42 -5 69.5 -30t27.5 -62q0 -53 -49 -85.5t-131 -32.5q-87 0 -135 28l23 77q50 -26 98 -26q32 0 52 13t19 33q0 24 -25.5 37t-60.5 13h-30v68h28q30 0 53.5 10t23.5 31q0 36 -53 36
q-47 0 -90 -25z" />
    <glyph glyph-name="acute" unicode="&#xb4;" 
d="M161 702h141l-122 -152h-105z" />
    <glyph glyph-name="mu" unicode="&#xb5;" horiz-adv-x="585" 
d="M391 67h-3q-14 -30 -45.5 -52t-75.5 -22q-43 0 -69 29v-42q0 -126 11 -178h-135q-13 35 -13 177v510h152v-273q0 -105 74 -105q27 0 49 16.5t30 37.5q5 15 5 33v291h152v-330q0 -31 10 -43t32 -13l-9 -105q-18 -9 -54 -9q-88 0 -111 78z" />
    <glyph glyph-name="paragraph" unicode="&#xb6;" horiz-adv-x="542" 
d="M302 -47h-96v311h-7q-32 0 -69.5 19.5t-68 65t-30.5 104.5q0 43 13 80t44 71.5t92 54t147 19.5q100 0 143 -11v-714h-97v631h-71v-631z" />
    <glyph glyph-name="periodcentered" unicode="&#xb7;" horiz-adv-x="260" 
d="M130 167q-40 0 -65 26t-25 66t25.5 66.5t64.5 26.5q40 0 64.5 -26t25.5 -67q0 -40 -25 -66t-65 -26z" />
    <glyph glyph-name="cedilla" unicode="&#xb8;" 
d="M121 4h82l-27 -48q30 -3 51 -23t21 -49q0 -46 -34 -67t-87 -21q-48 0 -81 20l20 57q31 -17 55 -17q15 0 25.5 6.5t9.5 19.5q0 30 -77 36z" />
    <glyph glyph-name="onesuperior" unicode="&#xb9;" 
d="M235 443h-117v294h-2l-79 -35l-16 83l112 48h102v-390z" />
    <glyph glyph-name="ordmasculine" unicode="&#xba;" horiz-adv-x="386" 
d="M194 591q76 0 121.5 -45.5t45.5 -116.5q0 -80 -50 -124t-120 -44q-71 0 -119.5 44.5t-48.5 117.5q0 75 48 121.5t123 46.5zM192 517q-31 0 -46 -28t-15 -64q0 -38 17 -64t45 -26q29 0 45 25.5t16 66.5q0 35 -16.5 62.5t-45.5 27.5z" />
    <glyph glyph-name="guillemotright" unicode="&#xbb;" horiz-adv-x="465" 
d="M142 252l-119 191h104l117 -191l-117 -191h-104zM334 252l-120 191h105l117 -191l-117 -191h-105z" />
    <glyph glyph-name="onequarter" unicode="&#xbc;" horiz-adv-x="831" 
d="M249 266h-117v295h-1l-80 -35l-16 82l112 48h102v-390zM256 -11h-83l369 672h82zM743 0h-108v90h-196v63l170 241h134v-230h53v-74h-53v-90zM635 164v74q0 26 4 74h-3q-23 -46 -36 -65l-56 -81l3 -2h88z" />
    <glyph glyph-name="onehalf" unicode="&#xbd;" horiz-adv-x="831" 
d="M237 266h-117v295h-2l-79 -35l-16 82l112 48h102v-390zM232 -11h-83l369 672h82zM485 0v56l61 56q50 44 67 60t33.5 39.5t16.5 44.5t-16 34.5t-43 13.5q-45 0 -86 -28l-31 76q59 43 146 43q72 0 112 -34t40 -87q0 -33 -18.5 -65t-37.5 -50.5t-58 -50.5l-24 -19v-2h146
v-87h-308z" />
    <glyph glyph-name="threequarters" unicode="&#xbe;" horiz-adv-x="831" 
d="M64 557l-22 72q52 32 140 32q70 0 107.5 -28t37.5 -71q0 -31 -22.5 -54t-59.5 -34v-2q42 -5 69.5 -30t27.5 -62q0 -53 -49.5 -86t-131.5 -33q-85 0 -134 28l22 78q50 -26 98 -26q31 0 51.5 12.5t20.5 32.5q0 24 -25.5 37t-61.5 13h-30v68h28q30 0 53.5 10.5t23.5 31.5
q0 35 -52 35q-45 0 -91 -24zM288 -11h-83l368 672h83zM752 0h-108v90h-195v63l170 241h133v-230h53v-74h-53v-90zM644 164v74q0 15 2 41t2 33h-2q-30 -56 -36 -65l-56 -81l2 -2h88z" />
    <glyph glyph-name="questiondown" unicode="&#xbf;" horiz-adv-x="445" 
d="M248 495q40 0 64.5 -25.5t24.5 -65.5t-24.5 -65.5t-64.5 -25.5q-39 0 -64 25.5t-26 65.5q0 40 25 65.5t65 25.5zM178 260h133l1 -25q5 -77 -58 -154q-23 -27 -31.5 -38t-18 -29.5t-9.5 -34.5q0 -58 73 -59q56 0 100 29l33 -109q-70 -41 -167 -41q-94 0 -143 44.5
t-49 111.5q0 14 2.5 28t5 24t10 23.5l11 20t14 20t13.5 17l16 18t14 15.5q51 58 51 122z" />
    <glyph glyph-name="Agrave" unicode="&#xc0;" horiz-adv-x="656" 
d="M416 173h-193l-48 -173h-158l206 674h200l209 -674h-164zM245 287h149l-42 143q-9 30 -34 130h-2l-14 -60.5t-17 -69.5zM153 833h160l84 -121h-122z" />
    <glyph glyph-name="Aacute" unicode="&#xc1;" horiz-adv-x="656" 
d="M416 173h-193l-48 -173h-158l206 674h200l209 -674h-164zM245 287h149l-42 143q-9 30 -34 130h-2l-14 -60.5t-17 -69.5zM337 833h160l-122 -123h-122z" />
    <glyph glyph-name="Acircumflex" unicode="&#xc2;" horiz-adv-x="656" 
d="M416 173h-193l-48 -173h-158l206 674h200l209 -674h-164zM245 287h149l-42 143q-9 30 -34 130h-2l-14 -60.5t-17 -69.5zM271 833h114l101 -123h-107l-50 62h-2l-50 -62h-106z" />
    <glyph glyph-name="Atilde" unicode="&#xc3;" horiz-adv-x="656" 
d="M416 173h-193l-48 -173h-158l206 674h200l209 -674h-164zM245 287h149l-42 143q-9 30 -34 130h-2l-14 -60.5t-17 -69.5zM261 715h-70q-2 61 19 94t58 33q31 0 64 -20q30 -19 44 -19q13 0 18.5 9t8.5 34h68q4 -125 -79 -125q-31 0 -65 19q-34 18 -42 18q-21 0 -24 -43z
" />
    <glyph glyph-name="Adieresis" unicode="&#xc4;" horiz-adv-x="656" 
d="M416 173h-193l-48 -173h-158l206 674h200l209 -674h-164zM245 287h149l-42 143q-9 30 -34 130h-2l-14 -60.5t-17 -69.5zM228 712q-29 0 -49 20.5t-20 48.5q0 29 20 48.5t49 19.5q28 0 47 -19.5t19 -48.5q0 -28 -19 -48.5t-47 -20.5zM435 712q-29 0 -48.5 20.5t-19.5 48.5
q0 29 19.5 48.5t48.5 19.5t48 -19.5t19 -48.5q0 -28 -19 -48.5t-48 -20.5z" />
    <glyph glyph-name="Aring" unicode="&#xc5;" horiz-adv-x="656" 
d="M416 173h-193l-48 -173h-158l206 674h200l209 -674h-164zM245 287h149l-42 143q-9 30 -34 130h-2l-14 -60.5t-17 -69.5zM325 898q55 0 84.5 -28t29.5 -71q0 -42 -30.5 -69.5t-83.5 -27.5t-84 27.5t-31 68.5q0 43 30.5 71.5t84.5 28.5zM324 847q-21 0 -32.5 -14.5
t-11.5 -34.5q0 -18 12 -31.5t32 -13.5t32 13t12 33t-12 34t-32 14z" />
    <glyph glyph-name="AE" unicode="&#xc6;" horiz-adv-x="868" 
d="M159 0h-157l288 674h513v-125h-277l18 -143h255v-124h-235l20 -157h256v-125h-387l-24 184h-196zM278 306h134l-20 163q-1 10 -12 98h-3l-34 -99z" />
    <glyph glyph-name="Ccedilla" unicode="&#xc7;" horiz-adv-x="597" 
d="M538 138l23 -119q-55 -28 -159 -29l-19 -34q32 -7 52.5 -28t20.5 -54q0 -48 -35 -70t-84 -22q-52 0 -86 19l20 62q23 -14 56 -14q36 0 36 25q0 29 -79 37l39 83q-139 18 -213.5 108.5t-74.5 224.5q0 167 104.5 262.5t263.5 95.5q108 0 166 -30l-31 -121q-60 25 -128 25
q-95 0 -155 -57.5t-60 -165.5q0 -102 57.5 -161t158.5 -59q72 0 127 22z" />
    <glyph glyph-name="Egrave" unicode="&#xc8;" horiz-adv-x="534" 
d="M467 409v-124h-248v-160h277v-125h-430v674h416v-125h-263v-140h248zM111 833h160l84 -121h-122z" />
    <glyph glyph-name="Eacute" unicode="&#xc9;" horiz-adv-x="534" 
d="M467 409v-124h-248v-160h277v-125h-430v674h416v-125h-263v-140h248zM289 833h160l-123 -123h-121z" />
    <glyph glyph-name="Ecircumflex" unicode="&#xca;" horiz-adv-x="534" 
d="M467 409v-124h-248v-160h277v-125h-430v674h416v-125h-263v-140h248zM221 833h115l101 -123h-107l-51 62h-2l-50 -62h-106z" />
    <glyph glyph-name="Edieresis" unicode="&#xcb;" horiz-adv-x="534" 
d="M467 409v-124h-248v-160h277v-125h-430v674h416v-125h-263v-140h248zM169 713q-30 0 -50 20t-20 48q0 29 20.5 49t49.5 20q28 0 47 -20t19 -49q0 -28 -19 -48t-47 -20zM376 713q-30 0 -49.5 20t-19.5 48q0 29 20 49t49 20q28 0 47.5 -20t19.5 -49q0 -28 -19.5 -48
t-47.5 -20z" />
    <glyph glyph-name="Igrave" unicode="&#xcc;" horiz-adv-x="285" 
d="M66 674h153v-674h-153v674zM-27 833h160l84 -121h-122z" />
    <glyph glyph-name="Iacute" unicode="&#xcd;" horiz-adv-x="285" 
d="M66 674h153v-674h-153v674zM153 833h160l-123 -123h-122z" />
    <glyph glyph-name="Icircumflex" unicode="&#xce;" horiz-adv-x="285" 
d="M66 674h153v-674h-153v674zM85 833h114l101 -123h-107l-50 62h-2l-50 -62h-106z" />
    <glyph glyph-name="Idieresis" unicode="&#xcf;" horiz-adv-x="285" 
d="M66 674h153v-674h-153v674zM40 713q-30 0 -49.5 20t-19.5 48q0 29 20 49t49 20q28 0 47 -20t19 -49q0 -28 -19 -48t-47 -20zM247 713q-29 0 -48.5 20t-19.5 48q0 29 19.5 49t48.5 20q28 0 47.5 -20t19.5 -49q0 -28 -19 -48t-48 -20z" />
    <glyph glyph-name="Eth" unicode="&#xd0;" horiz-adv-x="704" 
d="M3 284v119h71v264q93 15 206 15q182 0 276 -71q113 -84 113 -257q0 -182 -111 -276q-106 -88 -311 -88q-97 0 -173 10v284h-71zM360 403v-119h-134v-172q14 -2 53 -2q108 0 168.5 59.5t60.5 179.5q0 107 -56 161t-157 54q-41 0 -69 -6v-155h134z" />
    <glyph glyph-name="Ntilde" unicode="&#xd1;" horiz-adv-x="690" 
d="M206 0h-140v674h178l140 -247q63 -112 110 -231h3q-13 116 -13 281v197h140v-674h-160l-144 260q-71 128 -117 238l-3 -1q6 -133 6 -294v-203zM277 715h-70q-1 62 19.5 94.5t58.5 32.5q30 0 63 -20q32 -19 44 -19q13 0 19 9.5t8 33.5h69q3 -125 -79 -125q-31 0 -65 19
q-36 18 -43 18q-19 0 -24 -43z" />
    <glyph glyph-name="Ograve" unicode="&#xd2;" horiz-adv-x="717" 
d="M363 685q150 0 235 -97.5t85 -243.5q0 -164 -91 -259.5t-240 -95.5q-146 0 -231.5 97.5t-85.5 245.5q0 154 90.5 253.5t237.5 99.5zM359 564q-76 0 -119.5 -64t-43.5 -165q0 -100 44.5 -162.5t119.5 -62.5t118.5 64t43.5 165q0 95 -43.5 160t-119.5 65zM188 834h160
l84 -121h-121z" />
    <glyph glyph-name="Oacute" unicode="&#xd3;" horiz-adv-x="717" 
d="M363 685q150 0 235 -97.5t85 -243.5q0 -164 -91 -259.5t-240 -95.5q-146 0 -231.5 97.5t-85.5 245.5q0 154 90.5 253.5t237.5 99.5zM359 564q-76 0 -119.5 -64t-43.5 -165q0 -100 44.5 -162.5t119.5 -62.5t118.5 64t43.5 165q0 95 -43.5 160t-119.5 65zM373 834h160
l-122 -123h-122z" />
    <glyph glyph-name="Ocircumflex" unicode="&#xd4;" horiz-adv-x="717" 
d="M363 685q150 0 235 -97.5t85 -243.5q0 -164 -91 -259.5t-240 -95.5q-146 0 -231.5 97.5t-85.5 245.5q0 154 90.5 253.5t237.5 99.5zM359 564q-76 0 -119.5 -64t-43.5 -165q0 -100 44.5 -162.5t119.5 -62.5t118.5 64t43.5 165q0 95 -43.5 160t-119.5 65zM302 833h114
l101 -122h-107l-50 62h-2l-50 -62h-107z" />
    <glyph glyph-name="Otilde" unicode="&#xd5;" horiz-adv-x="717" 
d="M363 685q150 0 235 -97.5t85 -243.5q0 -164 -91 -259.5t-240 -95.5q-146 0 -231.5 97.5t-85.5 245.5q0 154 90.5 253.5t237.5 99.5zM359 564q-76 0 -119.5 -64t-43.5 -165q0 -100 44.5 -162.5t119.5 -62.5t118.5 64t43.5 165q0 95 -43.5 160t-119.5 65zM289 714h-70
q-2 62 19 95t58 33q26 0 64 -20q30 -19 44 -19q12 0 18 9t9 33h68q4 -124 -79 -124q-29 0 -65 18q-31 18 -42 18q-21 0 -24 -43z" />
    <glyph glyph-name="Odieresis" unicode="&#xd6;" horiz-adv-x="717" 
d="M363 685q150 0 235 -97.5t85 -243.5q0 -164 -91 -259.5t-240 -95.5q-146 0 -231.5 97.5t-85.5 245.5q0 154 90.5 253.5t237.5 99.5zM359 564q-76 0 -119.5 -64t-43.5 -165q0 -100 44.5 -162.5t119.5 -62.5t118.5 64t43.5 165q0 95 -43.5 160t-119.5 65zM256 713
q-29 0 -49 20t-20 48q0 29 20 49t49 20q28 0 47 -20t19 -49q0 -28 -19 -48t-47 -20zM463 713q-29 0 -48.5 20t-19.5 48q0 29 19.5 49t48.5 20t48 -20t19 -49q0 -28 -19 -48t-48 -20z" />
    <glyph glyph-name="multiply" unicode="&#xd7;" horiz-adv-x="596" 
d="M40 459l65 67l193 -197l193 197l65 -67l-192 -196l192 -196l-66 -67l-192 196l-192 -196l-66 67l192 196z" />
    <glyph glyph-name="Oslash" unicode="&#xd8;" horiz-adv-x="717" 
d="M154 -66l-82 64l56 85q-93 98 -93 253q0 151 90.5 250t234.5 99q84 0 149 -35l55 81l87 -58l-57 -84q89 -95 89 -248q0 -162 -90.5 -257t-233.5 -95q-79 0 -144 34zM215 214l223 328q-35 24 -78 24q-80 0 -126 -63.5t-46 -165.5q0 -65 26 -123h1zM505 454l-220 -323
q31 -23 74 -23q79 0 125 63.5t46 167.5q0 57 -22 114z" />
    <glyph glyph-name="Ugrave" unicode="&#xd9;" horiz-adv-x="682" 
d="M65 674h153v-388q0 -86 31.5 -130.5t90.5 -44.5q124 0 124 175v388h152v-378q0 -153 -73 -230t-208 -77q-270 0 -270 309v376zM174 833h160l84 -121h-122z" />
    <glyph glyph-name="Uacute" unicode="&#xda;" horiz-adv-x="682" 
d="M65 674h153v-388q0 -86 31.5 -130.5t90.5 -44.5q124 0 124 175v388h152v-378q0 -153 -73 -230t-208 -77q-270 0 -270 309v376zM348 833h160l-122 -123h-122z" />
    <glyph glyph-name="Ucircumflex" unicode="&#xdb;" horiz-adv-x="682" 
d="M65 674h153v-388q0 -86 31.5 -130.5t90.5 -44.5q124 0 124 175v388h152v-378q0 -153 -73 -230t-208 -77q-270 0 -270 309v376zM294 833h114l101 -123h-107l-50 62h-2l-50 -62h-106z" />
    <glyph glyph-name="Udieresis" unicode="&#xdc;" horiz-adv-x="682" 
d="M65 674h153v-388q0 -86 31.5 -130.5t90.5 -44.5q124 0 124 175v388h152v-378q0 -153 -73 -230t-208 -77q-270 0 -270 309v376zM244 713q-30 0 -49.5 20t-19.5 48q0 29 20 49t49 20q28 0 47 -20t19 -49q0 -28 -19 -48t-47 -20zM451 713q-29 0 -48.5 20t-19.5 48
q0 29 19.5 49t48.5 20q28 0 47.5 -20t19.5 -49q0 -28 -19 -48t-48 -20z" />
    <glyph glyph-name="Yacute" unicode="&#xdd;" horiz-adv-x="603" 
d="M374 0h-152v276l-213 398h174l69 -162q22 -51 52 -129h2q16 46 51 129l68 162h171l-222 -393v-281zM319 832h160l-122 -124h-122z" />
    <glyph glyph-name="Thorn" unicode="&#xde;" horiz-adv-x="580" 
d="M66 0v674h151v-121q27 3 82 3q122 0 185 -53q65 -55 65 -146q0 -117 -73.5 -173t-190.5 -56q-42 0 -68 4v-132h-151zM217 436v-185q25 -5 62 -5q59 0 89.5 27t30.5 72q0 46 -30.5 71t-85.5 25q-39 0 -66 -5z" />
    <glyph glyph-name="germandbls" unicode="&#xdf;" horiz-adv-x="600" 
d="M213 0h-152v431q0 156 77 227q66 63 180 63q93 0 154 -51t61 -134q0 -52 -24 -82q-57 -28 -57 -69q0 -32 34 -67l37.5 -41.5t27 -47.5t14.5 -68q0 -78 -53.5 -125t-147.5 -47q-68 0 -107 16l19 112q31 -14 69 -14q31 0 49 14.5t18 37.5q0 31 -36 68q-25 25 -36.5 39
t-26 43.5t-14.5 59.5q0 81 81 124q7 19 7 35q0 35 -21.5 58t-56.5 23q-96 0 -96 -161v-444z" />
    <glyph glyph-name="agrave" unicode="&#xe0;" horiz-adv-x="528" 
d="M476 0h-137l-9 49h-3q-49 -60 -140 -60q-71 0 -114.5 44.5t-43.5 105.5q0 93 76.5 140.5t210.5 46.5v7q0 63 -89 63q-76 0 -135 -37l-28 98q77 43 190 43q114 0 164.5 -58t50.5 -153v-170q0 -81 7 -119zM321 178v53q-142 2 -142 -77q0 -28 16.5 -43t43.5 -15
q28 0 49.5 16t29.5 40q3 12 3 26zM100 702h141l86 -152h-104z" />
    <glyph glyph-name="aacute" unicode="&#xe1;" horiz-adv-x="528" 
d="M476 0h-137l-9 49h-3q-49 -60 -140 -60q-71 0 -114.5 44.5t-43.5 105.5q0 93 76.5 140.5t210.5 46.5v7q0 63 -89 63q-76 0 -135 -37l-28 98q77 43 190 43q114 0 164.5 -58t50.5 -153v-170q0 -81 7 -119zM321 178v53q-142 2 -142 -77q0 -28 16.5 -43t43.5 -15
q28 0 49.5 16t29.5 40q3 12 3 26zM281 702h141l-122 -152h-105z" />
    <glyph glyph-name="acircumflex" unicode="&#xe2;" horiz-adv-x="528" 
d="M476 0h-137l-9 49h-3q-49 -60 -140 -60q-71 0 -114.5 44.5t-43.5 105.5q0 93 76.5 140.5t210.5 46.5v7q0 63 -89 63q-76 0 -135 -37l-28 98q77 43 190 43q114 0 164.5 -58t50.5 -153v-170q0 -81 7 -119zM321 178v53q-142 2 -142 -77q0 -28 16.5 -43t43.5 -15
q28 0 49.5 16t29.5 40q3 12 3 26zM210 702h102l99 -152h-99l-50 87h-2l-51 -87h-99z" />
    <glyph glyph-name="atilde" unicode="&#xe3;" horiz-adv-x="528" 
d="M476 0h-137l-9 49h-3q-49 -60 -140 -60q-71 0 -114.5 44.5t-43.5 105.5q0 93 76.5 140.5t210.5 46.5v7q0 63 -89 63q-76 0 -135 -37l-28 98q77 43 190 43q114 0 164.5 -58t50.5 -153v-170q0 -81 7 -119zM321 178v53q-142 2 -142 -77q0 -28 16.5 -43t43.5 -15
q28 0 49.5 16t29.5 40q3 12 3 26zM185 558h-72q-2 62 20.5 96.5t61.5 34.5q25 0 65 -20q32 -20 42 -20q13 0 19 9.5t7 35.5h70q4 -129 -82 -129q-27 0 -69 22q-29 16 -38 16q-23 0 -24 -45z" />
    <glyph glyph-name="adieresis" unicode="&#xe4;" horiz-adv-x="528" 
d="M476 0h-137l-9 49h-3q-49 -60 -140 -60q-71 0 -114.5 44.5t-43.5 105.5q0 93 76.5 140.5t210.5 46.5v7q0 63 -89 63q-76 0 -135 -37l-28 98q77 43 190 43q114 0 164.5 -58t50.5 -153v-170q0 -81 7 -119zM321 178v53q-142 2 -142 -77q0 -28 16.5 -43t43.5 -15
q28 0 49.5 16t29.5 40q3 12 3 26zM160 557q-30 0 -51 20.5t-21 49.5q0 30 21 50.5t51 20.5q29 0 48.5 -20t19.5 -51q0 -29 -19.5 -49.5t-48.5 -20.5zM370 557q-30 0 -50.5 20.5t-20.5 49.5q0 31 20.5 51t50.5 20q29 0 49 -20t20 -51q0 -29 -19.5 -49.5t-49.5 -20.5z" />
    <glyph glyph-name="aring" unicode="&#xe5;" horiz-adv-x="528" 
d="M476 0h-137l-9 49h-3q-49 -60 -140 -60q-71 0 -114.5 44.5t-43.5 105.5q0 93 76.5 140.5t210.5 46.5v7q0 63 -89 63q-76 0 -135 -37l-28 98q77 43 190 43q114 0 164.5 -58t50.5 -153v-170q0 -81 7 -119zM321 178v53q-142 2 -142 -77q0 -28 16.5 -43t43.5 -15
q28 0 49.5 16t29.5 40q3 12 3 26zM266 539q-52 0 -84 27.5t-32 68.5q0 44 31.5 72.5t85.5 28.5q53 0 82.5 -28t29.5 -72q0 -42 -31 -69.5t-82 -27.5zM265 589q22 0 34 14t12 34t-12.5 34.5t-34.5 14.5q-21 0 -32.5 -15t-11.5 -35q0 -18 12.5 -32.5t32.5 -14.5z" />
    <glyph glyph-name="ae" unicode="&#xe6;" horiz-adv-x="803" 
d="M770 203h-310q2 -46 38 -73.5t94 -27.5q75 0 137 26l21 -102q-71 -37 -180 -37q-62 0 -112 23t-74 64h-4q-64 -87 -182 -87q-78 0 -123.5 44t-45.5 109q0 88 78 134.5t211 45.5v14q0 10 -6.5 22t-29 24.5t-57.5 12.5q-69 0 -131 -37l-30 96q83 46 173 46q116 0 161 -79h3
q60 79 167 79q101 0 153 -72t52 -171q0 -18 -3 -54zM322 178v51q-65 1 -104.5 -18t-39.5 -58q0 -27 18 -42t45 -15q54 0 77 51q4 8 4 31zM459 305h174q1 34 -18 65t-65 31q-43 0 -66.5 -31t-24.5 -65z" />
    <glyph glyph-name="ccedilla" unicode="&#xe7;" horiz-adv-x="451" 
d="M410 125l18 -113q-38 -19 -112 -22l-19 -34q31 -7 52 -28t21 -53q0 -48 -35 -70.5t-85 -22.5q-54 0 -85 19l20 62q23 -14 56 -14q36 0 36 25q0 29 -79 37l40 84q-96 14 -150.5 79t-54.5 166q0 112 74 186t206 74q65 0 116 -19l-24 -113q-34 15 -85 15q-60 0 -96 -38.5
t-35 -98.5q0 -65 38 -101t96 -36q50 0 87 16z" />
    <glyph glyph-name="egrave" unicode="&#xe8;" horiz-adv-x="528" 
d="M493 196h-315q4 -45 42.5 -69t95.5 -24q72 0 135 20l20 -103q-75 -30 -177 -30q-123 0 -192 66.5t-69 182.5q0 65 25 122.5t83 98t139 40.5q110 0 164 -71t54 -173q0 -32 -5 -60zM177 300h180q0 37 -19.5 68t-66.5 31q-43 0 -66.5 -30.5t-27.5 -68.5zM120 702h140
l86 -152h-104z" />
    <glyph glyph-name="eacute" unicode="&#xe9;" horiz-adv-x="528" 
d="M493 196h-315q4 -45 42.5 -69t95.5 -24q72 0 135 20l20 -103q-75 -30 -177 -30q-123 0 -192 66.5t-69 182.5q0 65 25 122.5t83 98t139 40.5q110 0 164 -71t54 -173q0 -32 -5 -60zM177 300h180q0 37 -19.5 68t-66.5 31q-43 0 -66.5 -30.5t-27.5 -68.5zM300 702h141
l-122 -152h-105z" />
    <glyph glyph-name="ecircumflex" unicode="&#xea;" horiz-adv-x="528" 
d="M493 196h-315q4 -45 42.5 -69t95.5 -24q72 0 135 20l20 -103q-75 -30 -177 -30q-123 0 -192 66.5t-69 182.5q0 65 25 122.5t83 98t139 40.5q110 0 164 -71t54 -173q0 -32 -5 -60zM177 300h180q0 37 -19.5 68t-66.5 31q-43 0 -66.5 -30.5t-27.5 -68.5zM224 702h102
l99 -152h-99l-50 87h-2l-50 -87h-100z" />
    <glyph glyph-name="edieresis" unicode="&#xeb;" horiz-adv-x="528" 
d="M493 196h-315q4 -45 42.5 -69t95.5 -24q72 0 135 20l20 -103q-75 -30 -177 -30q-123 0 -192 66.5t-69 182.5q0 65 25 122.5t83 98t139 40.5q110 0 164 -71t54 -173q0 -32 -5 -60zM177 300h180q0 37 -19.5 68t-66.5 31q-43 0 -66.5 -30.5t-27.5 -68.5zM176 557
q-30 0 -51 20.5t-21 49.5q0 30 21 50.5t51 20.5q29 0 48.5 -20t19.5 -51q0 -29 -19.5 -49.5t-48.5 -20.5zM386 557q-30 0 -50.5 20.5t-20.5 49.5q0 31 20.5 51t50.5 20q29 0 49 -20t20 -51q0 -29 -19.5 -49.5t-49.5 -20.5z" />
    <glyph glyph-name="igrave" unicode="&#xec;" horiz-adv-x="274" 
d="M213 0h-152v489h152v-489zM-30 702h140l86 -152h-104z" />
    <glyph glyph-name="iacute" unicode="&#xed;" horiz-adv-x="274" 
d="M213 0h-152v489h152v-489zM158 702h141l-122 -152h-105z" />
    <glyph glyph-name="icircumflex" unicode="&#xee;" horiz-adv-x="274" 
d="M213 0h-152v489h152v-489zM86 702h102l100 -152h-99l-51 87h-2l-50 -87h-99z" />
    <glyph glyph-name="idieresis" unicode="&#xef;" horiz-adv-x="274" 
d="M213 0h-152v489h152v-489zM33 557q-30 0 -51 20.5t-21 49.5q0 30 21 50.5t51 20.5q29 0 48.5 -20t19.5 -51q0 -29 -19.5 -49.5t-48.5 -20.5zM243 557q-30 0 -50.5 20.5t-20.5 49.5q0 31 20.5 51t50.5 20q29 0 49 -20t20 -51q0 -29 -19.5 -49.5t-49.5 -20.5z" />
    <glyph glyph-name="eth" unicode="&#xf0;" horiz-adv-x="574" 
d="M287 98q46 0 71.5 39.5t25.5 104.5q0 76 -24 106q-26 33 -71 33q-51 0 -75 -44t-24 -99q0 -60 26 -100t71 -40zM107 478l-27 60l105 47q-35 23 -94 48l66 85q81 -29 158 -80l138 60l30 -59l-106 -45q80 -63 123 -151q41 -79 41 -186q0 -130 -74.5 -199t-180.5 -69
q-110 0 -181.5 67.5t-71.5 180.5q0 107 69 172t168 65q37 0 66 -20l2 2q-38 51 -87 84z" />
    <glyph glyph-name="ntilde" unicode="&#xf1;" horiz-adv-x="586" 
d="M61 0v333q0 70 -4 156h132l7 -67h3q19 30 58 54t93 24q79 0 127 -53t48 -157v-290h-152v271q0 106 -77 106q-29 0 -48.5 -16.5t-28.5 -40.5q-6 -14 -6 -38v-282h-152zM224 558h-72q-2 62 20 96.5t62 34.5q25 0 65 -20q32 -20 42 -20q12 0 18 9.5t8 35.5h70
q4 -129 -82 -129q-27 0 -69 22q-29 16 -38 16q-22 0 -24 -45z" />
    <glyph glyph-name="ograve" unicode="&#xf2;" horiz-adv-x="577" 
d="M294 500q112 0 181 -69.5t69 -180.5q0 -126 -75.5 -193.5t-182.5 -67.5q-110 0 -181.5 68t-71.5 184q0 118 71.5 188.5t189.5 70.5zM290 392q-51 0 -75.5 -43t-24.5 -104q0 -65 26.5 -106t73.5 -41q44 0 70.5 40.5t26.5 106.5q0 61 -24.5 104t-72.5 43zM133 702h140
l86 -152h-104z" />
    <glyph glyph-name="oacute" unicode="&#xf3;" horiz-adv-x="577" 
d="M294 500q112 0 181 -69.5t69 -180.5q0 -126 -75.5 -193.5t-182.5 -67.5q-110 0 -181.5 68t-71.5 184q0 118 71.5 188.5t189.5 70.5zM290 392q-51 0 -75.5 -43t-24.5 -104q0 -65 26.5 -106t73.5 -41q44 0 70.5 40.5t26.5 106.5q0 61 -24.5 104t-72.5 43zM307 702h141
l-122 -152h-105z" />
    <glyph glyph-name="ocircumflex" unicode="&#xf4;" horiz-adv-x="577" 
d="M294 500q112 0 181 -69.5t69 -180.5q0 -126 -75.5 -193.5t-182.5 -67.5q-110 0 -181.5 68t-71.5 184q0 118 71.5 188.5t189.5 70.5zM290 392q-51 0 -75.5 -43t-24.5 -104q0 -65 26.5 -106t73.5 -41q44 0 70.5 40.5t26.5 106.5q0 61 -24.5 104t-72.5 43zM238 702h102
l99 -152h-99l-50 87h-2l-50 -87h-100z" />
    <glyph glyph-name="otilde" unicode="&#xf5;" horiz-adv-x="577" 
d="M294 500q112 0 181 -69.5t69 -180.5q0 -126 -75.5 -193.5t-182.5 -67.5q-110 0 -181.5 68t-71.5 184q0 118 71.5 188.5t189.5 70.5zM290 392q-51 0 -75.5 -43t-24.5 -104q0 -65 26.5 -106t73.5 -41q44 0 70.5 40.5t26.5 106.5q0 61 -24.5 104t-72.5 43zM218 558h-72
q-2 62 20 96.5t62 34.5q25 0 65 -20q32 -20 42 -20q12 0 18 9.5t8 35.5h70q4 -129 -82 -129q-27 0 -69 22q-29 16 -38 16q-22 0 -24 -45z" />
    <glyph glyph-name="odieresis" unicode="&#xf6;" horiz-adv-x="577" 
d="M294 500q112 0 181 -69.5t69 -180.5q0 -126 -75.5 -193.5t-182.5 -67.5q-110 0 -181.5 68t-71.5 184q0 118 71.5 188.5t189.5 70.5zM290 392q-51 0 -75.5 -43t-24.5 -104q0 -65 26.5 -106t73.5 -41q44 0 70.5 40.5t26.5 106.5q0 61 -24.5 104t-72.5 43zM184 557
q-30 0 -51 20.5t-21 49.5q0 30 21 50.5t51 20.5q29 0 48.5 -20t19.5 -51q0 -29 -19.5 -49.5t-48.5 -20.5zM394 557q-30 0 -50.5 20.5t-20.5 49.5q0 31 20.5 51t50.5 20q29 0 49 -20t20 -51q0 -29 -19.5 -49.5t-49.5 -20.5z" />
    <glyph glyph-name="divide" unicode="&#xf7;" horiz-adv-x="596" 
d="M298 369q-33 0 -53 20.5t-20 52.5q0 34 20 54.5t53 20.5t52.5 -20t20.5 -55q0 -33 -20 -53t-53 -20zM556 220h-516v94h516v-94zM298 17q-33 0 -53 20.5t-20 53.5t20.5 53.5t52.5 20.5q33 0 52.5 -20t20.5 -54q0 -33 -20 -53.5t-53 -20.5z" />
    <glyph glyph-name="oslash" unicode="&#xf8;" horiz-adv-x="577" 
d="M288 500q70 0 119 -26l47 69l53 -37l-45 -67q82 -71 82 -193q0 -123 -75.5 -190t-179.5 -67q-67 0 -116 26l-49 -71l-50 40l44 65q-85 69 -85 195q0 115 70.5 185.5t184.5 70.5zM199 166l143 208q-25 18 -54 18q-55 0 -82 -44t-27 -103q0 -48 18 -78zM379 319l-142 -203
q19 -18 51 -18q50 0 79.5 39.5t29.5 104.5q0 45 -15 76z" />
    <glyph glyph-name="ugrave" unicode="&#xf9;" horiz-adv-x="583" 
d="M522 489v-332q0 -75 4 -157h-132l-7 69h-3q-51 -80 -153 -80q-79 0 -125.5 52.5t-46.5 160.5v287h153v-263q0 -114 76 -114q54 0 76 53q5 11 5 33v291h153zM132 702h140l86 -152h-104z" />
    <glyph glyph-name="uacute" unicode="&#xfa;" horiz-adv-x="583" 
d="M522 489v-332q0 -75 4 -157h-132l-7 69h-3q-51 -80 -153 -80q-79 0 -125.5 52.5t-46.5 160.5v287h153v-263q0 -114 76 -114q54 0 76 53q5 11 5 33v291h153zM315 702h141l-122 -152h-105z" />
    <glyph glyph-name="ucircumflex" unicode="&#xfb;" horiz-adv-x="583" 
d="M522 489v-332q0 -75 4 -157h-132l-7 69h-3q-51 -80 -153 -80q-79 0 -125.5 52.5t-46.5 160.5v287h153v-263q0 -114 76 -114q54 0 76 53q5 11 5 33v291h153zM241 702h102l99 -152h-99l-50 87h-2l-50 -87h-99z" />
    <glyph glyph-name="udieresis" unicode="&#xfc;" horiz-adv-x="583" 
d="M522 489v-332q0 -75 4 -157h-132l-7 69h-3q-51 -80 -153 -80q-79 0 -125.5 52.5t-46.5 160.5v287h153v-263q0 -114 76 -114q54 0 76 53q5 11 5 33v291h153zM191 557q-30 0 -51 20.5t-21 49.5q0 30 21 50.5t51 20.5q29 0 48.5 -20t19.5 -51q0 -29 -19.5 -49.5t-48.5 -20.5
zM401 557q-30 0 -50.5 20.5t-20.5 49.5q0 31 20.5 51t50.5 20q29 0 49 -20t20 -51q0 -29 -19.5 -49.5t-49.5 -20.5z" />
    <glyph glyph-name="yacute" unicode="&#xfd;" horiz-adv-x="523" 
d="M6 489h169l73 -240q18 -67 24 -91h3q4 15 11.5 48t10.5 43l60 240h163l-114 -322q-50 -140 -89.5 -211t-82.5 -110q-65 -56 -147 -67l-32 129q31 5 66 26q38 20 63 61q8 11 8 22t-7 25zM296 702h141l-122 -152h-105z" />
    <glyph glyph-name="thorn" unicode="&#xfe;" horiz-adv-x="598" 
d="M61 710h152v-281h2q48 71 146 71q83 2 143 -66t60 -185q0 -65 -20 -116.5t-52.5 -82t-70.5 -46t-77 -15.5q-86 0 -129 57h-2v-244h-152v908zM213 284v-84q0 -28 14 -47q25 -47 79 -47q47 0 75.5 38t28.5 103q0 59 -27 96.5t-73 37.5q-62 0 -87 -56q-10 -20 -10 -41z" />
    <glyph glyph-name="ydieresis" unicode="&#xff;" horiz-adv-x="523" 
d="M6 489h169l73 -240q18 -67 24 -91h3q4 15 11.5 48t10.5 43l60 240h163l-114 -322q-50 -140 -89.5 -211t-82.5 -110q-65 -56 -147 -67l-32 129q31 5 66 26q38 20 63 61q8 11 8 22t-7 25zM169 557q-30 0 -51 20.5t-21 49.5q0 31 20.5 51t51.5 20q29 0 48.5 -20t19.5 -51
q0 -29 -19.5 -49.5t-48.5 -20.5zM379 557q-30 0 -50.5 20.5t-20.5 49.5q0 31 20 51t51 20q29 0 49 -20t20 -51q0 -29 -19.5 -49.5t-49.5 -20.5z" />
    <glyph glyph-name="Amacron" unicode="&#x100;" horiz-adv-x="656" 
d="M416 173h-193l-48 -173h-158l206 674h200l209 -674h-164zM245 287h149l-42 143q-9 30 -34 130h-2l-14 -60.5t-17 -69.5zM194 815h259v-81h-259v81z" />
    <glyph glyph-name="amacron" unicode="&#x101;" horiz-adv-x="528" 
d="M476 0h-137l-9 49h-3q-49 -60 -140 -60q-71 0 -114.5 44.5t-43.5 105.5q0 93 76.5 140.5t210.5 46.5v7q0 63 -89 63q-76 0 -135 -37l-28 98q77 43 190 43q114 0 164.5 -58t50.5 -153v-170q0 -81 7 -119zM321 178v53q-142 2 -142 -77q0 -28 16.5 -43t43.5 -15
q28 0 49.5 16t29.5 40q3 12 3 26zM140 665h250v-83h-250v83z" />
    <glyph glyph-name="Abreve" unicode="&#x102;" horiz-adv-x="656" 
d="M416 173h-193l-48 -173h-158l206 674h200l209 -674h-164zM245 287h149l-42 143q-9 30 -34 130h-2l-14 -60.5t-17 -69.5zM186 834h80q6 -46 59 -46t63 46h78q-2 -58 -37 -92t-103 -34q-70 0 -104.5 34t-35.5 92z" />
    <glyph glyph-name="abreve" unicode="&#x103;" horiz-adv-x="528" 
d="M476 0h-137l-9 49h-3q-49 -60 -140 -60q-71 0 -114.5 44.5t-43.5 105.5q0 93 76.5 140.5t210.5 46.5v7q0 63 -89 63q-76 0 -135 -37l-28 98q77 43 190 43q114 0 164.5 -58t50.5 -153v-170q0 -81 7 -119zM321 178v53q-142 2 -142 -77q0 -28 16.5 -43t43.5 -15
q28 0 49.5 16t29.5 40q3 12 3 26zM125 692h79q9 -61 59 -61q29 0 44 17.5t17 43.5h79q-1 -65 -37 -103.5t-103 -38.5t-102 39.5t-36 102.5z" />
    <glyph glyph-name="Aogonek" unicode="&#x104;" horiz-adv-x="656" 
d="M423 674l209 -674h-80q-26 -42 -26 -68q0 -24 16 -40t39 -16q27 0 43 7l22 -70q-43 -32 -102 -32q-53 0 -83 27t-30 80q0 49 37 113l-52 172h-193l-48 -173h-158l206 674h200zM245 287h149l-42 143q-9 30 -34 130h-2l-14 -60.5t-17 -69.5z" />
    <glyph glyph-name="aogonek" unicode="&#x105;" horiz-adv-x="528" 
d="M92 359l-28 98q77 43 190 43q114 0 164.5 -58t50.5 -153v-170q0 -83 8 -119h-55q-21 -42 -21 -71q0 -24 13.5 -38t34.5 -14q22 0 44 10l22 -72q-46 -34 -106 -34q-46 0 -74.5 26.5t-28.5 75.5q0 45 33 118l-9 48h-3q-49 -60 -140 -60q-71 0 -114.5 44.5t-43.5 105.5
q0 93 76.5 140.5t210.5 46.5v7q0 63 -89 63q-76 0 -135 -37zM321 178v53q-142 2 -142 -77q0 -28 16.5 -43t43.5 -15q28 0 49.5 16t29.5 40q3 12 3 26z" />
    <glyph glyph-name="Cacute" unicode="&#x106;" horiz-adv-x="595" 
d="M538 138l23 -119q-58 -29 -173 -29q-169 0 -261 93.5t-92 243.5q0 167 104.5 262.5t263.5 95.5q108 0 166 -30l-31 -121q-60 25 -128 25q-95 0 -155 -57.5t-60 -165.5q0 -102 57.5 -161t158.5 -59q72 0 127 22zM377 834h160l-122 -123h-122z" />
    <glyph glyph-name="cacute" unicode="&#x107;" horiz-adv-x="451" 
d="M410 124l18 -112q-50 -22 -136 -22q-119 0 -189 67.5t-70 182.5q0 112 74 186t206 74q65 0 116 -19l-24 -113q-34 15 -85 15q-60 0 -96 -38.5t-35 -98.5q0 -65 38 -101t96 -36q49 0 87 15zM291 702h141l-122 -152h-105z" />
    <glyph glyph-name="Ccircumflex" unicode="&#x108;" horiz-adv-x="595" 
d="M538 138l23 -119q-58 -29 -173 -29q-169 0 -261 93.5t-92 243.5q0 167 104.5 262.5t263.5 95.5q108 0 166 -30l-31 -121q-60 25 -128 25q-95 0 -155 -57.5t-60 -165.5q0 -102 57.5 -161t158.5 -59q72 0 127 22zM301 836h115l101 -122h-107l-51 62h-2l-50 -62h-106z" />
    <glyph glyph-name="ccircumflex" unicode="&#x109;" horiz-adv-x="451" 
d="M410 124l18 -112q-50 -22 -136 -22q-119 0 -189 67.5t-70 182.5q0 112 74 186t206 74q65 0 116 -19l-24 -113q-34 15 -85 15q-60 0 -96 -38.5t-35 -98.5q0 -65 38 -101t96 -36q49 0 87 15zM214 702h103l99 -152h-99l-51 87h-2l-50 -87h-99z" />
    <glyph glyph-name="Cdotaccent" unicode="&#x10a;" horiz-adv-x="595" 
d="M538 138l23 -119q-58 -29 -173 -29q-169 0 -261 93.5t-92 243.5q0 167 104.5 262.5t263.5 95.5q108 0 166 -30l-31 -121q-60 25 -128 25q-95 0 -155 -57.5t-60 -165.5q0 -102 57.5 -161t158.5 -59q72 0 127 22zM360 712q-30 0 -50 20.5t-20 48.5q0 29 20.5 49t49.5 20
q28 0 47.5 -20t19.5 -49q0 -28 -19.5 -48.5t-47.5 -20.5z" />
    <glyph glyph-name="cdotaccent" unicode="&#x10b;" horiz-adv-x="451" 
d="M410 124l18 -112q-50 -22 -136 -22q-119 0 -189 67.5t-70 182.5q0 112 74 186t206 74q65 0 116 -19l-24 -113q-34 15 -85 15q-60 0 -96 -38.5t-35 -98.5q0 -65 38 -101t96 -36q49 0 87 15zM278 557q-30 0 -50.5 20.5t-20.5 49.5q0 31 20.5 51t50.5 20q29 0 48.5 -20
t19.5 -51q0 -29 -19.5 -49.5t-48.5 -20.5z" />
    <glyph glyph-name="Ccaron" unicode="&#x10c;" horiz-adv-x="595" 
d="M538 138l23 -119q-58 -29 -173 -29q-169 0 -261 93.5t-92 243.5q0 167 104.5 262.5t263.5 95.5q108 0 166 -30l-31 -121q-60 25 -128 25q-95 0 -155 -57.5t-60 -165.5q0 -102 57.5 -161t158.5 -59q72 0 127 22zM419 711h-115l-101 122h107l51 -62h2l50 62h106z" />
    <glyph glyph-name="ccaron" unicode="&#x10d;" horiz-adv-x="451" 
d="M410 124l18 -112q-50 -22 -136 -22q-119 0 -189 67.5t-70 182.5q0 112 74 186t206 74q65 0 116 -19l-24 -113q-34 15 -85 15q-60 0 -96 -38.5t-35 -98.5q0 -65 38 -101t96 -36q49 0 87 15zM320 550h-103l-99 152h99l51 -87h2l50 87h100z" />
    <glyph glyph-name="Dcaron" unicode="&#x10e;" horiz-adv-x="696" 
d="M66 3v662q87 14 206 14q180 0 276 -72q114 -85 114 -254q0 -178 -112 -273q-105 -87 -311 -87q-97 0 -173 10zM219 556v-441q13 -3 53 -3q107 -1 167.5 58.5t60.5 177.5q1 103 -55.5 158.5t-156.5 55.5q-43 0 -69 -6zM379 711h-114l-101 122h107l50 -62h2l50 62h106z" />
    <glyph glyph-name="dcaron" unicode="&#x10f;" horiz-adv-x="606" 
d="M383 710h152v-564q0 -80 4 -146h-135l-7 72h-2q-23 -40 -63.5 -61.5t-89.5 -21.5q-89 0 -149 69.5t-60 181.5q-1 119 63 189.5t156 70.5q93 0 129 -55h2v265zM383 218v64q0 11 -2 27q-7 32 -31 53.5t-58 21.5q-50 0 -77.5 -39.5t-27.5 -99.5q0 -62 28.5 -98.5t75.5 -36.5
q33 0 57 20.5t31 52.5q4 15 4 35zM640 495l-65 41q28 50 28 101q0 33 -20 69l95 16q13 -9 22.5 -30.5t9.5 -44.5q0 -86 -70 -152z" />
    <glyph glyph-name="Dcroat" unicode="&#x110;" horiz-adv-x="704" 
d="M3 284v119h71v264q93 15 206 15q182 0 276 -71q113 -84 113 -257q0 -182 -111 -276q-106 -88 -311 -88q-97 0 -173 10v284h-71zM360 403v-119h-134v-172q14 -2 53 -2q108 0 168.5 59.5t60.5 179.5q0 107 -56 161t-157 54q-41 0 -69 -6v-155h134z" />
    <glyph glyph-name="dcroat" unicode="&#x111;" horiz-adv-x="596" 
d="M615 540h-80v-394q0 -80 4 -146h-135l-7 72h-2q-23 -40 -63.5 -61.5t-89.5 -21.5q-89 0 -149 69.5t-60 181.5q-1 119 63 189.5t156 70.5q93 0 129 -55h2v95h-181v83h181v87h152v-87h80v-83zM383 218v64q0 11 -2 27q-7 32 -31 53.5t-58 21.5q-50 0 -77.5 -39.5
t-27.5 -99.5q0 -62 28.5 -98.5t75.5 -36.5q33 0 57 20.5t31 52.5q4 15 4 35z" />
    <glyph glyph-name="Emacron" unicode="&#x112;" horiz-adv-x="534" 
d="M467 409v-124h-248v-160h277v-125h-430v674h416v-125h-263v-140h248zM142 815h259v-81h-259v81z" />
    <glyph glyph-name="emacron" unicode="&#x113;" horiz-adv-x="528" 
d="M493 196h-315q4 -45 42.5 -69t95.5 -24q72 0 135 20l20 -103q-75 -30 -177 -30q-123 0 -192 66.5t-69 182.5q0 65 25 122.5t83 98t139 40.5q110 0 164 -71t54 -173q0 -32 -5 -60zM177 300h180q0 37 -19.5 68t-66.5 31q-43 0 -66.5 -30.5t-27.5 -68.5zM142 665h250v-83
h-250v83z" />
    <glyph glyph-name="Ebreve" unicode="&#x114;" horiz-adv-x="534" 
d="M467 409v-124h-248v-160h277v-125h-430v674h416v-125h-263v-140h248zM136 837h81q6 -46 59 -46q52 0 63 46h77q-1 -57 -36 -92t-104 -35q-70 0 -104.5 34.5t-35.5 92.5z" />
    <glyph glyph-name="ebreve" unicode="&#x115;" horiz-adv-x="528" 
d="M493 196h-315q4 -45 42.5 -69t95.5 -24q72 0 135 20l20 -103q-75 -30 -177 -30q-123 0 -192 66.5t-69 182.5q0 65 25 122.5t83 98t139 40.5q110 0 164 -71t54 -173q0 -32 -5 -60zM177 300h180q0 37 -19.5 68t-66.5 31q-43 0 -66.5 -30.5t-27.5 -68.5zM129 692h79
q9 -61 59 -61q29 0 44 17.5t17 43.5h79q-1 -65 -37 -103.5t-103 -38.5t-102 39.5t-36 102.5z" />
    <glyph glyph-name="Edotaccent" unicode="&#x116;" horiz-adv-x="534" 
d="M467 409v-124h-248v-160h277v-125h-430v674h416v-125h-263v-140h248zM270 713q-30 0 -50 20.5t-20 47.5q0 29 20 49t50 20q28 0 47.5 -20t19.5 -49q0 -27 -20 -47.5t-47 -20.5z" />
    <glyph glyph-name="edotaccent" unicode="&#x117;" horiz-adv-x="528" 
d="M493 196h-315q4 -45 42.5 -69t95.5 -24q72 0 135 20l20 -103q-75 -30 -177 -30q-123 0 -192 66.5t-69 182.5q0 65 25 122.5t83 98t139 40.5q110 0 164 -71t54 -173q0 -32 -5 -60zM177 300h180q0 37 -19.5 68t-66.5 31q-43 0 -66.5 -30.5t-27.5 -68.5zM271 557
q-30 0 -50.5 20.5t-20.5 49.5q0 31 20.5 51t50.5 20q29 0 48.5 -20t19.5 -51q0 -29 -19.5 -49.5t-48.5 -20.5z" />
    <glyph glyph-name="Eogonek" unicode="&#x118;" horiz-adv-x="534" 
d="M482 -116l21 -72q-43 -31 -107 -31q-49 0 -76.5 24.5t-27.5 68.5q0 71 70 126h-296v674h416v-125h-263v-140h248v-124h-248v-160h277v-125h-25q-28 -19 -48.5 -44t-20.5 -48q0 -15 10.5 -23.5t27.5 -8.5q23 0 42 8z" />
    <glyph glyph-name="eogonek" unicode="&#x119;" horiz-adv-x="528" 
d="M421 -114l23 -71q-45 -34 -107 -34q-48 0 -75 23t-27 63q0 65 67 122v1h-13q-120 0 -188 67t-68 182q0 65 25 122.5t83 98t139 40.5q110 0 164 -71t54 -173q0 -32 -5 -60h-315q4 -45 42.5 -69t95.5 -24q72 0 135 20l20 -103q-7 -3 -43 -15q-30 -14 -58 -43t-28 -53
q0 -16 10 -24.5t24 -8.5q24 0 45 10zM177 300h180q0 37 -19.5 68t-66.5 31q-43 0 -66.5 -30.5t-27.5 -68.5z" />
    <glyph glyph-name="Ecaron" unicode="&#x11a;" horiz-adv-x="534" 
d="M467 409v-124h-248v-160h277v-125h-430v674h416v-125h-263v-140h248zM328 710h-114l-101 123h107l50 -63h2l50 63h106z" />
    <glyph glyph-name="ecaron" unicode="&#x11b;" horiz-adv-x="528" 
d="M493 196h-315q4 -45 42.5 -69t95.5 -24q72 0 135 20l20 -103q-75 -30 -177 -30q-123 0 -192 66.5t-69 182.5q0 65 25 122.5t83 98t139 40.5q110 0 164 -71t54 -173q0 -32 -5 -60zM177 300h180q0 37 -19.5 68t-66.5 31q-43 0 -66.5 -30.5t-27.5 -68.5zM319 550h-103
l-99 152h99l50 -87h2l51 87h99z" />
    <glyph glyph-name="Gcircumflex" unicode="&#x11c;" horiz-adv-x="682" 
d="M629 386v-355q-112 -38 -225 -38q-180 0 -274 91q-97 90 -95 245q1 164 108 258t277 94q119 0 187 -33l-32 -122q-67 29 -157 29q-99 0 -161 -56t-62 -162q0 -103 58.5 -162t153.5 -59q55 0 75 10v141h-104v119h251zM316 836h114l101 -122h-107l-50 62h-2l-50 -62h-106z
" />
    <glyph glyph-name="gcircumflex" unicode="&#x11d;" horiz-adv-x="585" 
d="M396 489h132q-4 -62 -4 -145v-273q0 -154 -74 -220q-70 -60 -199 -60q-109 0 -176 38l30 115q64 -37 142 -37q57 0 92 32t35 97v32h-2q-45 -64 -132 -64q-91 0 -149 66.5t-58 172.5q0 115 64.5 186t157.5 71q91 0 134 -69h2zM372 218v72q0 16 -3 28q-8 31 -29.5 49
t-52.5 18q-43 0 -71.5 -37t-28.5 -102q0 -57 26.5 -93.5t73.5 -36.5q29 0 50.5 17.5t29.5 44.5q5 14 5 40zM243 703h102l99 -152h-99l-50 87h-2l-50 -87h-100z" />
    <glyph glyph-name="Gbreve" unicode="&#x11e;" horiz-adv-x="682" 
d="M629 386v-355q-112 -38 -225 -38q-180 0 -274 91q-97 90 -95 245q1 164 108 258t277 94q119 0 187 -33l-32 -122q-67 29 -157 29q-99 0 -161 -56t-62 -162q0 -103 58.5 -162t153.5 -59q55 0 75 10v141h-104v119h251zM237 841h81q6 -46 59 -46t63 46h77q-1 -58 -36 -92
t-104 -34q-70 0 -104 34t-36 92z" />
    <glyph glyph-name="gbreve" unicode="&#x11f;" horiz-adv-x="585" 
d="M396 489h132q-4 -62 -4 -145v-273q0 -154 -74 -220q-70 -60 -199 -60q-109 0 -176 38l30 115q64 -37 142 -37q57 0 92 32t35 97v32h-2q-45 -64 -132 -64q-91 0 -149 66.5t-58 172.5q0 115 64.5 186t157.5 71q91 0 134 -69h2zM372 218v72q0 16 -3 28q-8 31 -29.5 49
t-52.5 18q-43 0 -71.5 -37t-28.5 -102q0 -57 26.5 -93.5t73.5 -36.5q29 0 50.5 17.5t29.5 44.5q5 14 5 40zM153 692h79q9 -61 59 -61q29 0 44 17.5t17 43.5h79q-1 -65 -37 -103.5t-103 -38.5t-102 39.5t-36 102.5z" />
    <glyph glyph-name="Gdotaccent" unicode="&#x120;" horiz-adv-x="682" 
d="M629 386v-355q-112 -38 -225 -38q-180 0 -274 91q-97 90 -95 245q1 164 108 258t277 94q119 0 187 -33l-32 -122q-67 29 -157 29q-99 0 -161 -56t-62 -162q0 -103 58.5 -162t153.5 -59q55 0 75 10v141h-104v119h251zM376 712q-30 0 -50 20.5t-20 48.5q0 29 20 49t50 20
q28 0 47.5 -20t19.5 -49q0 -28 -19.5 -48.5t-47.5 -20.5z" />
    <glyph glyph-name="gdotaccent" unicode="&#x121;" horiz-adv-x="585" 
d="M396 489h132q-4 -62 -4 -145v-273q0 -154 -74 -220q-70 -60 -199 -60q-109 0 -176 38l30 115q64 -37 142 -37q57 0 92 32t35 97v32h-2q-45 -64 -132 -64q-91 0 -149 66.5t-58 172.5q0 115 64.5 186t157.5 71q91 0 134 -69h2zM372 218v72q0 16 -3 28q-8 31 -29.5 49
t-52.5 18q-43 0 -71.5 -37t-28.5 -102q0 -57 26.5 -93.5t73.5 -36.5q29 0 50.5 17.5t29.5 44.5q5 14 5 40zM291 558q-30 0 -50.5 20.5t-20.5 49.5q0 31 20.5 51t50.5 20q29 0 48.5 -20t19.5 -51q0 -29 -19.5 -49.5t-48.5 -20.5z" />
    <glyph glyph-name="Gcommaaccent" unicode="&#x122;" horiz-adv-x="682" 
d="M629 386v-355q-112 -38 -225 -38q-180 0 -274 91q-97 90 -95 245q1 164 108 258t277 94q119 0 187 -33l-32 -122q-67 29 -157 29q-99 0 -161 -56t-62 -162q0 -103 58.5 -162t153.5 -59q55 0 75 10v141h-104v119h251zM287 -241l-22 64q27 6 46 21.5t19 39.5q0 27 -29 60
l106 17q39 -29 39 -79q0 -59 -44.5 -90t-114.5 -33z" />
    <glyph glyph-name="gcommaaccent" unicode="&#x123;" horiz-adv-x="585" 
d="M366 724l22 -54q-72 -11 -72 -60q0 -25 30 -55l-100 -16q-39 27 -39 72q0 55 44 83t115 30zM396 489h132q-4 -62 -4 -145v-273q0 -154 -74 -220q-70 -60 -199 -60q-109 0 -176 38l30 115q64 -37 142 -37q57 0 92 32t35 97v32h-2q-45 -64 -132 -64q-91 0 -149 66.5
t-58 172.5q0 115 64.5 186t157.5 71q91 0 134 -69h2zM372 218v72q0 16 -3 28q-8 31 -29.5 49t-52.5 18q-43 0 -71.5 -37t-28.5 -102q0 -57 26.5 -93.5t73.5 -36.5q29 0 50.5 17.5t29.5 44.5q5 14 5 40z" />
    <glyph glyph-name="Hcircumflex" unicode="&#x124;" horiz-adv-x="689" 
d="M66 674h153v-259h251v259h152v-674h-152v282h-251v-282h-153v674zM287 833h114l102 -123h-107l-51 62h-2l-50 -62h-106z" />
    <glyph glyph-name="hcircumflex" unicode="&#x125;" horiz-adv-x="586" 
d="M61 0v710h152v-279h2q23 30 60 50q35 19 79 19q77 0 124 -54t47 -160v-286h-152v269q0 108 -79 108q-54 0 -76 -53q-5 -12 -5 -34v-290h-152zM85 857h114l101 -123h-107l-50 62h-2l-50 -62h-106z" />
    <glyph glyph-name="Hbar" unicode="&#x126;" horiz-adv-x="701" 
d="M693 471h-65v-471h-152v256h-251v-256h-153v471h-64v90h64v113h153v-113h251v113h152v-113h65v-90zM476 389v82h-251v-82h251z" />
    <glyph glyph-name="hbar" unicode="&#x127;" horiz-adv-x="586" 
d="M525 0h-152v269q0 108 -79 108q-54 0 -76 -53q-5 -12 -5 -34v-290h-152v540h-79v83h79v87h152v-87h183v-83h-183v-109h2q25 32 60 50q36 19 79 19q77 0 124 -54t47 -160v-286z" />
    <glyph glyph-name="Itilde" unicode="&#x128;" horiz-adv-x="285" 
d="M66 674h153v-674h-153v674zM73 715h-70q-2 61 19 94t58 33q30 0 63 -20q32 -19 45 -19q12 0 18 9.5t9 33.5h68q3 -125 -79 -125q-31 0 -65 19q-34 18 -42 18q-21 0 -24 -43z" />
    <glyph glyph-name="itilde" unicode="&#x129;" horiz-adv-x="274" 
d="M213 0h-152v489h152v-489zM67 558h-72q-2 62 20 96.5t62 34.5q25 0 65 -20q32 -20 42 -20q12 0 18 9.5t8 35.5h70q4 -129 -82 -129q-27 0 -69 22q-29 16 -38 16q-23 0 -24 -45z" />
    <glyph glyph-name="Imacron" unicode="&#x12a;" horiz-adv-x="285" 
d="M66 674h153v-674h-153v674zM13 815h259v-81h-259v81z" />
    <glyph glyph-name="imacron" unicode="&#x12b;" horiz-adv-x="274" 
d="M213 0h-152v489h152v-489zM12 665h250v-83h-250v83z" />
    <glyph glyph-name="Ibreve" unicode="&#x12c;" horiz-adv-x="285" 
d="M66 674h153v-674h-153v674zM2 839h81q6 -46 59 -46q52 0 63 46h77q-1 -57 -36 -91.5t-104 -34.5q-70 0 -104 34t-36 92z" />
    <glyph glyph-name="ibreve" unicode="&#x12d;" horiz-adv-x="274" 
d="M213 0h-152v489h152v-489zM-1 692h79q9 -61 59 -61q29 0 44 17.5t17 43.5h79q-1 -65 -37 -103.5t-103 -38.5t-102 39.5t-36 102.5z" />
    <glyph glyph-name="Iogonek" unicode="&#x12e;" horiz-adv-x="285" 
d="M219 674v-674h-69q-22 -40 -22 -69q0 -25 15.5 -40.5t39.5 -15.5q27 0 43 7l22 -70q-41 -32 -102 -32q-53 0 -83 27t-30 79q0 44 33 114v674h153z" />
    <glyph glyph-name="iogonek" unicode="&#x12f;" horiz-adv-x="274" 
d="M137 551q-38 0 -61 22.5t-22 56.5q-1 34 22 56t61 22t60.5 -22t22.5 -56q1 -34 -22 -56.5t-61 -22.5zM213 489v-489h-68q-22 -40 -22 -69q0 -25 15.5 -40.5t38.5 -15.5q27 0 44 7l21 -70q-39 -32 -102 -32q-53 0 -82.5 27t-29.5 79q0 44 33 114v489h152z" />
    <glyph glyph-name="Idotaccent" unicode="&#x130;" horiz-adv-x="285" 
d="M66 674h153v-674h-153v674zM144 713q-30 0 -50 20.5t-20 47.5q0 29 20.5 49t49.5 20q28 0 47.5 -20t19.5 -49q0 -27 -19.5 -47.5t-47.5 -20.5z" />
    <glyph glyph-name="dotlessi" unicode="&#x131;" horiz-adv-x="274" 
d="M213 0h-152v489h152v-489z" />
    <glyph glyph-name="IJ" unicode="&#x132;" horiz-adv-x="696" 
d="M66 674h153v-674h-153v674zM483 250v424h152v-426q0 -138 -61.5 -198.5t-178.5 -60.5q-63 0 -111 16l17 123q36 -12 78 -12q52 0 78 29.5t26 104.5z" />
    <glyph glyph-name="ij" unicode="&#x133;" horiz-adv-x="565" 
d="M213 0h-152v489h152v-489zM137 702q36 0 58 -21.5t23 -55.5q0 -32 -22.5 -54t-59.5 -22q-35 0 -57.5 22t-21.5 54q-1 33 21.5 55t58.5 22zM249 -209l-14 119q63 5 89 32q31 32 31 159v388h152v-424q0 -151 -69 -214q-64 -60 -189 -60zM431 702q36 0 57.5 -21.5
t22.5 -55.5q0 -32 -22.5 -54t-59.5 -22q-35 0 -57 22t-22 54q0 33 22.5 55t58.5 22z" />
    <glyph glyph-name="Jcircumflex" unicode="&#x134;" horiz-adv-x="411" 
d="M198 250v424h152v-426q0 -138 -61.5 -198.5t-178.5 -60.5q-63 0 -111 16l17 123q36 -12 78 -12q52 0 78 29.5t26 104.5zM215 833h114l101 -123h-107l-50 62h-2l-50 -62h-106z" />
    <glyph glyph-name="jcircumflex" unicode="&#x135;" horiz-adv-x="291" 
d="M-25 -209l-15 119q64 5 90 32q30 31 30 159v388h153v-424q0 -150 -69 -214q-64 -60 -189 -60zM98 700h102l99 -152h-99l-50 87h-2l-50 -87h-100z" />
    <glyph glyph-name="Kcommaaccent" unicode="&#x136;" horiz-adv-x="614" 
d="M66 0v674h151v-298h3l46 74l153 224h187l-223 -287l235 -387h-178l-165 291l-58 -71v-220h-151zM240 -241l-22 64q27 6 46.5 22t19.5 39q0 25 -30 60l106 18q39 -29 39 -79q0 -59 -44.5 -90.5t-114.5 -33.5z" />
    <glyph glyph-name="kcommaaccent" unicode="&#x137;" horiz-adv-x="542" 
d="M213 710v-427h2q15 28 35 59l99 147h183l-175 -198l200 -291h-187l-118 201l-39 -48v-153h-152v710h152zM202 -242l-22 65q27 5 46.5 21t19.5 40q0 25 -30 60l106 17q39 -29 39 -79q0 -59 -44.5 -90.5t-114.5 -33.5z" />
    <glyph glyph-name="kgreenlandic" unicode="&#x138;" horiz-adv-x="542" 
d="M213 489v-206h2q15 28 35 59l99 147h183l-175 -198l200 -291h-187l-118 201l-39 -48v-153h-152v489h152z" />
    <glyph glyph-name="Lacute" unicode="&#x139;" horiz-adv-x="511" 
d="M66 0v674h153v-546h268v-128h-421zM165 833h160l-122 -123h-122z" />
    <glyph glyph-name="lacute" unicode="&#x13a;" horiz-adv-x="275" 
d="M61 0v710h152v-710h-152zM145 863h160l-123 -123h-122z" />
    <glyph glyph-name="Lcommaaccent" unicode="&#x13b;" horiz-adv-x="511" 
d="M66 0v674h153v-546h268v-128h-421zM189 -241l-22 64q27 6 46 21.5t19 39.5q0 27 -29 60l106 17q39 -29 39 -79q0 -59 -44.5 -90t-114.5 -33z" />
    <glyph glyph-name="lcommaaccent" unicode="&#x13c;" horiz-adv-x="275" 
d="M61 0v710h152v-710h-152zM58 -242l-22 65q27 5 46.5 21t19.5 40q0 25 -30 60l106 17q39 -29 39 -79q0 -59 -44.5 -90.5t-114.5 -33.5z" />
    <glyph glyph-name="Lcaron" unicode="&#x13d;" horiz-adv-x="511" 
d="M66 0v674h153v-546h268v-128h-421zM294 485l-23 64q27 6 46.5 22t19.5 39q0 28 -30 60l106 17q39 -27 39 -79q0 -59 -44 -90t-114 -33z" />
    <glyph glyph-name="lcaron" unicode="&#x13e;" horiz-adv-x="285" 
d="M321 495l-71 41q28 56 28 101q0 35 -21 69l96 16q32 -24 32 -80q0 -79 -64 -147zM61 0v710h152v-710h-152z" />
    <glyph glyph-name="Ldot" unicode="&#x13f;" horiz-adv-x="511" 
d="M66 0v674h153v-546h268v-128h-421zM384 310q-30 0 -50 20.5t-20 48.5q0 29 20 48.5t50 19.5q28 0 47.5 -19.5t19.5 -48.5q0 -28 -19.5 -48.5t-47.5 -20.5z" />
    <glyph glyph-name="ldot" unicode="&#x140;" horiz-adv-x="354" 
d="M316 329q-28 0 -46.5 20t-18.5 49t18.5 48.5t46.5 19.5q26 0 44 -19.5t18 -48.5t-17.5 -49t-44.5 -20zM61 0v710h152v-710h-152z" />
    <glyph glyph-name="Lslash" unicode="&#x141;" horiz-adv-x="517" 
d="M493 0h-420v235l-76 -51v105l76 52v333h152v-232l126 85v-106l-126 -85v-208h268v-128z" />
    <glyph glyph-name="lslash" unicode="&#x142;" horiz-adv-x="287" 
d="M220 0h-153v229l-65 -51v108l65 52v372h153v-259l71 57v-109l-71 -57v-342z" />
    <glyph glyph-name="Nacute" unicode="&#x143;" horiz-adv-x="690" 
d="M206 0h-140v674h178l140 -247q63 -112 110 -231h3q-13 116 -13 281v197h140v-674h-160l-144 260q-71 128 -117 238l-3 -1q6 -133 6 -294v-203zM352 833h160l-122 -123h-122z" />
    <glyph glyph-name="nacute" unicode="&#x144;" horiz-adv-x="586" 
d="M61 0v333q0 70 -4 156h132l7 -67h3q19 30 58 54t93 24q79 0 127 -53t48 -157v-290h-152v271q0 106 -77 106q-29 0 -48.5 -16.5t-28.5 -40.5q-6 -14 -6 -38v-282h-152zM304 702h141l-122 -152h-105z" />
    <glyph glyph-name="Ncommaaccent" unicode="&#x145;" horiz-adv-x="690" 
d="M206 0h-140v674h178l140 -247q63 -112 110 -231h3q-13 116 -13 281v197h140v-674h-160l-144 260q-71 128 -117 238l-3 -1q6 -133 6 -294v-203zM276 -239l-22 64q28 6 47 21.5t19 39.5q0 25 -30 60l106 17q39 -29 39 -79q0 -59 -44.5 -90t-114.5 -33z" />
    <glyph glyph-name="ncommaaccent" unicode="&#x146;" horiz-adv-x="586" 
d="M61 0v333q0 70 -4 156h132l7 -67h3q19 30 58 54t93 24q79 0 127 -53t48 -157v-290h-152v271q0 106 -77 106q-29 0 -48.5 -16.5t-28.5 -40.5q-6 -14 -6 -38v-282h-152zM224 -242l-23 65q28 6 47 21.5t19 39.5q0 27 -29 60l106 18q39 -29 39 -80q0 -59 -44.5 -90
t-114.5 -34z" />
    <glyph glyph-name="Ncaron" unicode="&#x147;" horiz-adv-x="690" 
d="M206 0h-140v674h178l140 -247q63 -112 110 -231h3q-13 116 -13 281v197h140v-674h-160l-144 260q-71 128 -117 238l-3 -1q6 -133 6 -294v-203zM406 708h-114l-101 123h107l50 -62h2l50 62h106z" />
    <glyph glyph-name="ncaron" unicode="&#x148;" horiz-adv-x="586" 
d="M61 0v333q0 70 -4 156h132l7 -67h3q19 30 58 54t93 24q79 0 127 -53t48 -157v-290h-152v271q0 106 -77 106q-29 0 -48.5 -16.5t-28.5 -40.5q-6 -14 -6 -38v-282h-152zM344 550h-103l-99 152h99l50 -87h2l51 87h99z" />
    <glyph glyph-name="napostrophe" unicode="&#x149;" horiz-adv-x="586" 
d="M75 524l-67 41q31 51 31 87q0 29 -20 55l97 25q12 -8 22 -28.5t10 -47.5q0 -74 -73 -132zM61 0v333q0 70 -4 156h132l7 -67h3q19 30 58 54t93 24q79 0 127 -53t48 -157v-290h-152v271q0 106 -77 106q-29 0 -48.5 -16.5t-28.5 -40.5q-6 -14 -6 -38v-282h-152z" />
    <glyph glyph-name="Eng" unicode="&#x14a;" horiz-adv-x="690" 
d="M206 0h-140v674h178l140 -247q63 -112 110 -231h3q-13 116 -13 281v197h140v-626q0 -237 -228 -264l-33 116q98 24 112 85l-155 275q-71 128 -117 238l-3 -1q6 -133 6 -294v-203z" />
    <glyph glyph-name="eng" unicode="&#x14b;" horiz-adv-x="586" 
d="M61 0v333q0 70 -4 156h132l7 -67h3q19 30 58 54t93 24q79 0 127 -53t48 -157v-231q0 -231 -207 -254l-29 118q44 8 64 34t20 78v236q0 106 -77 106q-29 0 -48.5 -16.5t-28.5 -40.5q-6 -14 -6 -38v-282h-152z" />
    <glyph glyph-name="Omacron" unicode="&#x14c;" horiz-adv-x="717" 
d="M363 685q150 0 235 -97.5t85 -243.5q0 -164 -91 -259.5t-240 -95.5q-146 0 -231.5 97.5t-85.5 245.5q0 154 90.5 253.5t237.5 99.5zM359 564q-76 0 -119.5 -64t-43.5 -165q0 -100 44.5 -162.5t119.5 -62.5t118.5 64t43.5 165q0 95 -43.5 160t-119.5 65zM230 817h259v-81
h-259v81z" />
    <glyph glyph-name="omacron" unicode="&#x14d;" horiz-adv-x="577" 
d="M294 500q112 0 181 -69.5t69 -180.5q0 -126 -75.5 -193.5t-182.5 -67.5q-110 0 -181.5 68t-71.5 184q0 118 71.5 188.5t189.5 70.5zM290 392q-51 0 -75.5 -43t-24.5 -104q0 -65 26.5 -106t73.5 -41q44 0 70.5 40.5t26.5 106.5q0 61 -24.5 104t-72.5 43zM163 665h251v-83
h-251v83z" />
    <glyph glyph-name="Obreve" unicode="&#x14e;" horiz-adv-x="717" 
d="M363 685q150 0 235 -97.5t85 -243.5q0 -164 -91 -259.5t-240 -95.5q-146 0 -231.5 97.5t-85.5 245.5q0 154 90.5 253.5t237.5 99.5zM359 564q-76 0 -119.5 -64t-43.5 -165q0 -100 44.5 -162.5t119.5 -62.5t118.5 64t43.5 165q0 95 -43.5 160t-119.5 65zM218 843h81
q6 -46 59 -46t63 46h78q-2 -57 -37 -91.5t-104 -34.5q-70 0 -104 34t-36 92z" />
    <glyph glyph-name="obreve" unicode="&#x14f;" horiz-adv-x="577" 
d="M294 500q112 0 181 -69.5t69 -180.5q0 -126 -75.5 -193.5t-182.5 -67.5q-110 0 -181.5 68t-71.5 184q0 118 71.5 188.5t189.5 70.5zM290 392q-51 0 -75.5 -43t-24.5 -104q0 -65 26.5 -106t73.5 -41q44 0 70.5 40.5t26.5 106.5q0 61 -24.5 104t-72.5 43zM149 692h79
q9 -61 59 -61q29 0 44 17.5t17 43.5h79q-1 -65 -37 -103.5t-103 -38.5t-102 39.5t-36 102.5z" />
    <glyph glyph-name="Ohungarumlaut" unicode="&#x150;" horiz-adv-x="717" 
d="M363 685q150 0 235 -97.5t85 -243.5q0 -164 -91 -259.5t-240 -95.5q-146 0 -231.5 97.5t-85.5 245.5q0 154 90.5 253.5t237.5 99.5zM359 564q-76 0 -119.5 -64t-43.5 -165q0 -100 44.5 -162.5t119.5 -62.5t118.5 64t43.5 165q0 95 -43.5 160t-119.5 65zM282 835h141
l-101 -116h-105zM464 835h140l-101 -116h-105z" />
    <glyph glyph-name="ohungarumlaut" unicode="&#x151;" horiz-adv-x="577" 
d="M294 500q112 0 181 -69.5t69 -180.5q0 -126 -75.5 -193.5t-182.5 -67.5q-110 0 -181.5 68t-71.5 184q0 118 71.5 188.5t189.5 70.5zM290 392q-51 0 -75.5 -43t-24.5 -104q0 -65 26.5 -106t73.5 -41q44 0 70.5 40.5t26.5 106.5q0 61 -24.5 104t-72.5 43zM200 701h120
l-98 -149h-86zM373 701h120l-98 -149h-85z" />
    <glyph glyph-name="OE" unicode="&#x152;" horiz-adv-x="936" 
d="M897 125v-125h-380q-16 0 -62 -6q-57 -5 -82 -5q-111 0 -189.5 48.5t-113.5 124t-35 169.5q0 161 93.5 257.5t246.5 96.5q29 0 91 -5q50 -6 63 -6h354v-125h-263v-140h248v-124h-248v-160h277zM468 122v428q-30 14 -79 14q-83 0 -138 -60t-55 -167q-1 -102 53 -164.5
t150 -62.5q42 0 69 12z" />
    <glyph glyph-name="oe" unicode="&#x153;" horiz-adv-x="868" 
d="M835 199h-309q3 -44 40.5 -70.5t92.5 -26.5q67 0 136 26l21 -102q-67 -37 -178 -37q-121 0 -180 86h-3q-60 -86 -183 -86q-102 0 -170.5 69t-68.5 186q0 115 69.5 185.5t179.5 70.5q54 0 100.5 -22.5t71.5 -64.5h2q58 87 170 87q74 0 124 -37t69.5 -90t19.5 -117
q0 -39 -4 -57zM290 392q-53 0 -76.5 -43.5t-23.5 -104.5q0 -64 26 -105t72 -41t71 39.5t25 107.5q0 62 -24 104.5t-70 42.5zM524 301h174q1 37 -17.5 67.5t-67.5 30.5q-42 0 -65 -31.5t-24 -66.5z" />
    <glyph glyph-name="Racute" unicode="&#x154;" horiz-adv-x="593" 
d="M66 0v665q86 14 203 14q151 0 218 -53q62 -50 62 -141q0 -60 -35.5 -104t-83.5 -62v-3q62 -25 90 -126q49 -179 55 -190h-156q-16 27 -47 157q-13 62 -37 84.5t-72 23.5h-46v-265h-151zM217 561v-186h60q57 0 89 26t32 71q0 92 -112 94q-42 0 -69 -5zM296 834h160
l-123 -123h-122z" />
    <glyph glyph-name="racute" unicode="&#x155;" horiz-adv-x="380" 
d="M61 0v328q0 77 -4 161h131l5 -90h4q17 50 55 75.5t77 25.5q21 0 32 -2v-143q-22 4 -41 4q-42 0 -69 -20.5t-35 -56.5q-3 -15 -3 -34v-248h-152zM212 702h140l-122 -152h-104z" />
    <glyph glyph-name="Rcommaaccent" unicode="&#x156;" horiz-adv-x="593" 
d="M66 0v665q86 14 203 14q151 0 218 -53q62 -50 62 -141q0 -60 -35.5 -104t-83.5 -62v-3q62 -25 90 -126q49 -179 55 -190h-156q-16 27 -47 157q-13 62 -37 84.5t-72 23.5h-46v-265h-151zM217 561v-186h60q57 0 89 26t32 71q0 92 -112 94q-42 0 -69 -5zM227 -239l-22 64
q27 6 46 22t19 39q0 27 -29 60l106 17q39 -27 39 -79q0 -59 -44.5 -90t-114.5 -33z" />
    <glyph glyph-name="rcommaaccent" unicode="&#x157;" horiz-adv-x="380" 
d="M61 0v328q0 77 -4 161h131l5 -90h4q17 50 55 75.5t77 25.5q21 0 32 -2v-143q-22 4 -41 4q-42 0 -69 -20.5t-35 -56.5q-3 -15 -3 -34v-248h-152zM66 -242l-23 65q27 5 46.5 21t19.5 40q0 27 -29 60l105 17q39 -29 39 -79q0 -59 -44 -90.5t-114 -33.5z" />
    <glyph glyph-name="Rcaron" unicode="&#x158;" horiz-adv-x="593" 
d="M66 0v665q86 14 203 14q151 0 218 -53q62 -50 62 -141q0 -60 -35.5 -104t-83.5 -62v-3q62 -25 90 -126q49 -179 55 -190h-156q-16 27 -47 157q-13 62 -37 84.5t-72 23.5h-46v-265h-151zM217 561v-186h60q57 0 89 26t32 71q0 92 -112 94q-42 0 -69 -5zM348 711h-114
l-101 122h107l50 -62h2l50 62h106z" />
    <glyph glyph-name="rcaron" unicode="&#x159;" horiz-adv-x="380" 
d="M61 0v328q0 77 -4 161h131l5 -90h4q17 50 55 75.5t77 25.5q21 0 32 -2v-143q-22 4 -41 4q-42 0 -69 -20.5t-35 -56.5q-3 -15 -3 -34v-248h-152zM252 550h-103l-99 152h99l50 -87h2l51 87h99z" />
    <glyph glyph-name="Sacute" unicode="&#x15a;" horiz-adv-x="540" 
d="M40 31l31 126q82 -42 169 -42q52 0 79.5 19.5t27.5 53.5q0 31 -25.5 52t-87.5 43q-185 64 -185 199q0 88 69 145.5t186 57.5q96 0 172 -34l-34 -123q-66 32 -141 32q-47 0 -72.5 -18.5t-25.5 -46.5q0 -30 27 -49t98 -46q90 -33 132.5 -81.5t42.5 -119.5q0 -90 -70 -149.5
t-202 -59.5q-55 0 -107.5 12t-83.5 29zM293 834h160l-123 -123h-122z" />
    <glyph glyph-name="sacute" unicode="&#x15b;" horiz-adv-x="434" 
d="M33 24l27 109q23 -14 61 -25.5t70 -11.5q65 0 65 41q0 19 -14.5 30.5t-57.5 25.5q-141 47 -139 147q0 69 55 114.5t144 45.5q82 0 138 -28l-27 -105q-51 28 -106 28q-58 0 -58 -40q0 -17 16.5 -28.5t62.5 -27.5q69 -24 100.5 -60t32.5 -91q0 -71 -55 -114.5t-157 -43.5
q-95 0 -158 34zM243 702h141l-122 -152h-105z" />
    <glyph glyph-name="Scircumflex" unicode="&#x15c;" horiz-adv-x="540" 
d="M40 31l31 126q82 -42 169 -42q52 0 79.5 19.5t27.5 53.5q0 31 -25.5 52t-87.5 43q-185 64 -185 199q0 88 69 145.5t186 57.5q96 0 172 -34l-34 -123q-66 32 -141 32q-47 0 -72.5 -18.5t-25.5 -46.5q0 -30 27 -49t98 -46q90 -33 132.5 -81.5t42.5 -119.5q0 -90 -70 -149.5
t-202 -59.5q-55 0 -107.5 12t-83.5 29zM215 834h114l101 -123h-107l-50 62h-2l-50 -62h-106z" />
    <glyph glyph-name="scircumflex" unicode="&#x15d;" horiz-adv-x="434" 
d="M33 24l27 109q23 -14 61 -25.5t70 -11.5q65 0 65 41q0 19 -14.5 30.5t-57.5 25.5q-141 47 -139 147q0 69 55 114.5t144 45.5q82 0 138 -28l-27 -105q-51 28 -106 28q-58 0 -58 -40q0 -17 16.5 -28.5t62.5 -27.5q69 -24 100.5 -60t32.5 -91q0 -71 -55 -114.5t-157 -43.5
q-95 0 -158 34zM169 702h102l100 -152h-99l-51 87h-2l-50 -87h-99z" />
    <glyph glyph-name="Scedilla" unicode="&#x15e;" horiz-adv-x="540" 
d="M40 31l31 126q82 -42 169 -42q52 0 79.5 19.5t27.5 53.5q0 31 -25.5 52t-87.5 43q-185 64 -185 199q0 88 69 145.5t186 57.5q96 0 172 -34l-34 -123q-66 32 -141 32q-47 0 -72.5 -18.5t-25.5 -46.5q0 -30 27 -49t98 -46q90 -33 132.5 -81.5t42.5 -119.5q0 -75 -49 -130
t-144 -72l-22 -41q30 -4 51 -23.5t21 -47.5q0 -45 -34.5 -67t-86.5 -22q-48 0 -81 20l20 57q29 -17 55 -17q35 0 35 26q0 30 -78 36l37 72h-3q-44 0 -97.5 11.5t-86.5 29.5z" />
    <glyph glyph-name="scedilla" unicode="&#x15f;" horiz-adv-x="434" 
d="M33 24l27 109q23 -14 61 -25.5t70 -11.5q65 0 65 41q0 19 -14.5 30.5t-57.5 25.5q-139 47 -139 147q1 70 55.5 115t143.5 45q82 0 138 -28l-27 -105q-51 28 -106 28q-58 0 -58 -40q0 -17 16.5 -28.5t62.5 -27.5q69 -24 101 -60.5t32 -90.5q0 -58 -38 -99t-110 -54
l-22 -39q30 -3 51 -23t21 -49q0 -46 -34 -67t-87 -21q-48 0 -81 20l20 57q31 -17 55 -17q15 0 25.5 6.5t9.5 19.5q0 30 -77 36l36 72h-2q-72 0 -137 34z" />
    <glyph glyph-name="Scaron" unicode="&#x160;" horiz-adv-x="540" 
d="M40 31l31 126q82 -42 169 -42q52 0 79.5 19.5t27.5 53.5q0 31 -25.5 52t-87.5 43q-185 64 -185 199q0 88 69 145.5t186 57.5q96 0 172 -34l-34 -123q-66 32 -141 32q-47 0 -72.5 -18.5t-25.5 -46.5q0 -30 27 -49t98 -46q90 -33 132.5 -81.5t42.5 -119.5q0 -90 -70 -149.5
t-202 -59.5q-55 0 -107.5 12t-83.5 29zM337 711h-115l-101 122h107l51 -62h2l50 62h106z" />
    <glyph glyph-name="scaron" unicode="&#x161;" horiz-adv-x="434" 
d="M33 24l27 109q23 -14 61 -25.5t70 -11.5q65 0 65 41q0 19 -14.5 30.5t-57.5 25.5q-141 47 -139 147q0 69 55 114.5t144 45.5q82 0 138 -28l-27 -105q-51 28 -106 28q-58 0 -58 -40q0 -17 16.5 -28.5t62.5 -27.5q69 -24 100.5 -60t32.5 -91q0 -71 -55 -114.5t-157 -43.5
q-95 0 -158 34zM271 550h-103l-99 152h99l51 -87h2l50 87h100z" />
    <glyph glyph-name="uni0162" unicode="&#x162;" horiz-adv-x="548" 
d="M349 0h-34l-21 -44q31 -7 52 -28t21 -54q0 -48 -35.5 -70t-84.5 -22q-51 0 -85 19l19 62q26 -14 57 -14q35 0 35 24q0 29 -78 38l39 89h-38v546h-181v128h518v-128h-184v-546z" />
    <glyph glyph-name="uni0163" unicode="&#x163;" horiz-adv-x="367" 
d="M340 377h-109v-177q0 -46 13 -66t47 -20q23 0 45 4l1 -115q-29 -11 -88 -13l-20 -35q30 -3 51 -23t21 -49q0 -46 -34 -67t-87 -21q-48 0 -81 20l20 57q31 -17 55 -17q15 0 25.5 6.5t9.5 19.5q0 30 -77 36l41 84q-30 11 -49 31q-42 43 -42 145v200h-65v112h65v106l149 34
v-140h109v-112z" />
    <glyph glyph-name="Tcaron" unicode="&#x164;" horiz-adv-x="548" 
d="M196 0v546h-181v128h518v-128h-184v-546h-153zM331 710h-115l-101 123h107l51 -63h2l50 63h106z" />
    <glyph glyph-name="tcaron" unicode="&#x165;" horiz-adv-x="371" 
d="M328 538l-37 55q15 9 24.5 28t9.5 40q0 27 -19 54l98 16q31 -25 31 -69q0 -51 -34.5 -83.5t-72.5 -40.5zM82 595l149 34v-140h109v-112h-109v-177q0 -46 13 -66t47 -20q23 0 45 4l1 -115q-33 -13 -99 -13q-74 0 -114 42q-42 43 -42 145v200h-65v112h65v106z" />
    <glyph glyph-name="Tbar" unicode="&#x166;" horiz-adv-x="548" 
d="M533 546h-184v-166h114v-90h-114v-290h-153v290h-115v90h115v166h-181v128h518v-128z" />
    <glyph glyph-name="tbar" unicode="&#x167;" horiz-adv-x="367" 
d="M340 377h-109v-70h83v-80h-83v-27q0 -46 13 -66t47 -20q23 0 45 4l1 -115q-33 -13 -99 -13q-74 0 -114 42q-42 43 -42 145v50h-63v80h63v70h-65v112h65v106l149 34v-140h109v-112z" />
    <glyph glyph-name="Utilde" unicode="&#x168;" horiz-adv-x="682" 
d="M65 674h153v-388q0 -86 31.5 -130.5t90.5 -44.5q124 0 124 175v388h152v-378q0 -153 -73 -230t-208 -77q-270 0 -270 309v376zM271 715h-70q-2 61 19 94t58 33q29 0 64 -20q30 -19 44 -19q12 0 18 9.5t9 33.5h68q4 -125 -79 -125q-31 0 -65 19q-34 18 -42 18
q-21 0 -24 -43z" />
    <glyph glyph-name="utilde" unicode="&#x169;" horiz-adv-x="583" 
d="M522 489v-332q0 -75 4 -157h-132l-7 69h-3q-51 -80 -153 -80q-79 0 -125.5 52.5t-46.5 160.5v287h153v-263q0 -114 76 -114q54 0 76 53q5 11 5 33v291h153zM222 558h-72q-2 62 20 96.5t62 34.5q25 0 65 -20q32 -20 42 -20q12 0 18 9.5t8 35.5h70q4 -129 -82 -129
q-27 0 -69 22q-29 16 -38 16q-22 0 -24 -45z" />
    <glyph glyph-name="Umacron" unicode="&#x16a;" horiz-adv-x="682" 
d="M65 674h153v-388q0 -86 31.5 -130.5t90.5 -44.5q124 0 124 175v388h152v-378q0 -153 -73 -230t-208 -77q-270 0 -270 309v376zM212 815h259v-81h-259v81z" />
    <glyph glyph-name="umacron" unicode="&#x16b;" horiz-adv-x="583" 
d="M522 489v-332q0 -75 4 -157h-132l-7 69h-3q-51 -80 -153 -80q-79 0 -125.5 52.5t-46.5 160.5v287h153v-263q0 -114 76 -114q54 0 76 53q5 11 5 33v291h153zM167 665h251v-83h-251v83z" />
    <glyph glyph-name="Ubreve" unicode="&#x16c;" horiz-adv-x="682" 
d="M65 674h153v-388q0 -86 31.5 -130.5t90.5 -44.5q124 0 124 175v388h152v-378q0 -153 -73 -230t-208 -77q-270 0 -270 309v376zM200 836h81q6 -46 59 -46t63 46h78q-2 -58 -37 -92t-104 -34q-70 0 -104 34t-36 92z" />
    <glyph glyph-name="ubreve" unicode="&#x16d;" horiz-adv-x="583" 
d="M522 489v-332q0 -75 4 -157h-132l-7 69h-3q-51 -80 -153 -80q-79 0 -125.5 52.5t-46.5 160.5v287h153v-263q0 -114 76 -114q54 0 76 53q5 11 5 33v291h153zM153 692h79q9 -61 59 -61q29 0 44 17.5t17 43.5h79q-1 -65 -37 -103.5t-103 -38.5t-102 39.5t-36 102.5z" />
    <glyph glyph-name="Uring" unicode="&#x16e;" horiz-adv-x="682" 
d="M65 674h153v-388q0 -86 31.5 -130.5t90.5 -44.5q124 0 124 175v388h152v-378q0 -153 -73 -230t-208 -77q-270 0 -270 309v376zM342 886q54 0 84 -28t30 -71q0 -42 -31 -69.5t-83 -27.5q-53 0 -84.5 27.5t-31.5 68.5q0 43 31 71.5t85 28.5zM340 835q-21 0 -32.5 -14.5
t-11.5 -33.5q0 -18 12.5 -32t31.5 -14q20 0 32.5 13.5t12.5 32.5q0 20 -12.5 34t-32.5 14z" />
    <glyph glyph-name="uring" unicode="&#x16f;" horiz-adv-x="583" 
d="M522 489v-332q0 -75 4 -157h-132l-7 69h-3q-51 -80 -153 -80q-79 0 -125.5 52.5t-46.5 160.5v287h153v-263q0 -114 76 -114q54 0 76 53q5 11 5 33v291h153zM292 539q-52 0 -83.5 27.5t-31.5 68.5q0 44 31 72.5t85 28.5q53 0 83 -28t30 -72q0 -42 -31 -69.5t-83 -27.5z
M291 589q22 0 34 14t12 34t-12.5 34.5t-33.5 14.5t-33 -15t-12 -35q0 -18 12.5 -32.5t32.5 -14.5z" />
    <glyph glyph-name="Uhungarumlaut" unicode="&#x170;" horiz-adv-x="682" 
d="M65 674h153v-388q0 -86 31.5 -130.5t90.5 -44.5q124 0 124 175v388h152v-378q0 -153 -73 -230t-208 -77q-270 0 -270 309v376zM258 835h141l-102 -117h-104zM439 835h141l-101 -117h-105z" />
    <glyph glyph-name="uhungarumlaut" unicode="&#x171;" horiz-adv-x="583" 
d="M522 489v-332q0 -75 4 -157h-132l-7 69h-3q-51 -80 -153 -80q-79 0 -125.5 52.5t-46.5 160.5v287h153v-263q0 -114 76 -114q54 0 76 53q5 11 5 33v291h153zM220 701h120l-98 -149h-85zM393 701h120l-98 -149h-85z" />
    <glyph glyph-name="Uogonek" unicode="&#x172;" horiz-adv-x="682" 
d="M453 -115l21 -71q-46 -32 -108 -32q-50 0 -77 23.5t-27 65.5q0 56 58 119h-6q-249 10 -249 308v376h153v-388q0 -86 31.5 -130.5t90.5 -44.5q124 0 124 175v388h152v-378q0 -126 -50 -200.5t-143 -95.5q-54 -50 -54 -87q0 -17 12 -27t29 -10q22 0 43 9z" />
    <glyph glyph-name="uogonek" unicode="&#x173;" horiz-adv-x="583" 
d="M522 489v-332q0 -77 4 -157h-49q-21 -38 -21 -68q0 -25 15.5 -40.5t38.5 -15.5q26 0 44 7l21 -71q-40 -31 -102 -31q-53 0 -82.5 27t-29.5 79q0 44 33 114l-7 68h-3q-51 -80 -153 -80q-79 0 -125.5 52.5t-46.5 160.5v287h153v-263q0 -114 76 -114q54 0 76 53q5 11 5 33
v291h153z" />
    <glyph glyph-name="Wcircumflex" unicode="&#x174;" horiz-adv-x="888" 
d="M342 0h-167l-160 674h163l51 -278q14 -77 40 -235h2q13 84 44 237l57 276h162l54 -284q20 -104 36 -226h2q6 47 39 234l55 276h155l-174 -674h-165l-57 290q-23 119 -32 208h-2q-20 -128 -39 -208zM392 833h114l101 -123h-107l-50 62h-2l-50 -62h-106z" />
    <glyph glyph-name="wcircumflex" unicode="&#x175;" horiz-adv-x="759" 
d="M11 489h155l39 -200q18 -94 28 -161h2q10 56 36 160l52 201h120l49 -195q26 -110 36 -166h2q8 67 28 167l42 194h149l-150 -489h-143l-46 172q-17 68 -31 152h-2q-12 -81 -32 -152l-49 -172h-143zM329 702h102l99 -152h-99l-50 87h-2l-50 -87h-100z" />
    <glyph glyph-name="Ycircumflex" unicode="&#x176;" horiz-adv-x="603" 
d="M374 0h-152v276l-213 398h174l69 -162q22 -51 52 -129h2q16 46 51 129l68 162h171l-222 -393v-281zM244 833h114l101 -123h-107l-50 62h-2l-50 -62h-106z" />
    <glyph glyph-name="ycircumflex" unicode="&#x177;" horiz-adv-x="523" 
d="M6 489h169l73 -240q18 -67 24 -91h3q4 15 11.5 48t10.5 43l60 240h163l-114 -322q-50 -140 -89.5 -211t-82.5 -110q-65 -56 -147 -67l-32 129q31 5 66 26q38 20 63 61q8 11 8 22t-7 25zM216 702h103l99 -152h-99l-51 87h-2l-50 -87h-99z" />
    <glyph glyph-name="Ydieresis" unicode="&#x178;" horiz-adv-x="603" 
d="M374 0h-152v276l-213 398h174l69 -162q22 -51 52 -129h2q16 46 51 129l68 162h171l-222 -393v-281zM207 711q-29 0 -49 20t-20 48q0 29 20.5 49t49.5 20q28 0 46.5 -20t18.5 -49q0 -28 -19 -48t-47 -20zM415 711q-30 0 -49.5 20t-19.5 48q0 29 19.5 49t49.5 20
q28 0 47.5 -20t19.5 -49q0 -28 -19.5 -48t-47.5 -20z" />
    <glyph glyph-name="Zacute" unicode="&#x179;" horiz-adv-x="577" 
d="M23 0v82l321 462v4h-291v126h489v-88l-314 -456v-4h319v-126h-524zM298 833h160l-122 -123h-122z" />
    <glyph glyph-name="zacute" unicode="&#x17a;" horiz-adv-x="469" 
d="M22 0v87l154 193q32 38 78 87v2h-215v120h400v-91l-147 -185q-58 -69 -80 -90v-2h235v-121h-425zM258 702h141l-122 -152h-105z" />
    <glyph glyph-name="Zdotaccent" unicode="&#x17b;" horiz-adv-x="577" 
d="M23 0v82l321 462v4h-291v126h489v-88l-314 -456v-4h319v-126h-524zM293 712q-30 0 -50 20.5t-20 48.5q0 29 20.5 49t49.5 20q28 0 47.5 -20t19.5 -49q0 -28 -19.5 -48.5t-47.5 -20.5z" />
    <glyph glyph-name="zdotaccent" unicode="&#x17c;" horiz-adv-x="469" 
d="M22 0v87l154 193q32 38 78 87v2h-215v120h400v-91l-147 -185q-58 -69 -80 -90v-2h235v-121h-425zM239 557q-30 0 -51 20.5t-21 49.5q0 31 20.5 51t51.5 20q29 0 48.5 -20t19.5 -51q0 -29 -19.5 -49.5t-48.5 -20.5z" />
    <glyph glyph-name="Zcaron" unicode="&#x17d;" horiz-adv-x="577" 
d="M23 0v82l321 462v4h-291v126h489v-88l-314 -456v-4h319v-126h-524zM352 710h-114l-101 123h107l50 -63h2l50 63h106z" />
    <glyph glyph-name="zcaron" unicode="&#x17e;" horiz-adv-x="469" 
d="M22 0v87l154 193q32 38 78 87v2h-215v120h400v-91l-147 -185q-58 -69 -80 -90v-2h235v-121h-425zM291 550h-103l-99 152h99l51 -87h2l50 87h100z" />
    <glyph glyph-name="florin" unicode="&#x192;" horiz-adv-x="555" 
d="M114 306v106h91l3 32q3 25 9 49t21.5 56t38 55.5t61 40t87.5 16.5q51 0 83 -16l-24 -108q-22 9 -47 9q-70 0 -80 -90l-6 -44h102v-106h-115l-22 -178q-13 -104 -56.5 -161.5t-141.5 -57.5q-62 2 -91 17l21 106q20 -8 47 -8q38 1 54.5 29t26.5 113l16 140h-78z" />
    <glyph glyph-name="Ohorn" unicode="&#x1a0;" horiz-adv-x="717" 
d="M360 110q75 0 118.5 64t43.5 165q0 95 -43.5 160t-119.5 65q-75 0 -119 -65t-44 -163q-1 -98 43.5 -162t120.5 -64zM600 743l108 19q24 -48 24 -102q0 -48 -26.5 -78.5t-78.5 -31.5q56 -89 56 -206q0 -164 -91 -259.5t-240 -95.5q-146 0 -231.5 97.5t-85.5 245.5
q0 154 90.5 253.5t237.5 99.5q61 0 123 -20q11 -4 32.5 -14t38 -15.5t28.5 -5.5q37 0 37 40q0 34 -22 73z" />
    <glyph glyph-name="ohorn" unicode="&#x1a1;" horiz-adv-x="588" 
d="M290 392q-51 0 -75.5 -43t-24.5 -104q0 -65 26.5 -106t73.5 -41q44 0 70.5 40.5t26.5 106.5q0 61 -24.5 104t-72.5 43zM478 566l106 18q23 -46 23 -94q0 -46 -25.5 -73.5t-71.5 -32.5q34 -58 34 -134q0 -126 -75.5 -193.5t-182.5 -67.5q-110 0 -181.5 68t-71.5 184
q0 118 71.5 188.5t189.5 70.5q47 0 89 -13q4 -1 35.5 -14t45.5 -13q35 0 35 36q0 33 -21 70z" />
    <glyph glyph-name="Uhorn" unicode="&#x1af;" horiz-adv-x="728" 
d="M611 780l107 17q22 -44 22 -93q0 -99 -107 -109l-17 -2v-297q0 -153 -73 -230t-208 -77q-270 0 -270 309v376h153v-388q0 -86 31.5 -130.5t90.5 -44.5q124 0 124 175v388h116q30 0 41 9.5t11 29.5q0 33 -21 67z" />
    <glyph glyph-name="uhorn" unicode="&#x1b0;" horiz-adv-x="583" 
d="M493 596l106 18q23 -46 23 -91q0 -44 -25.5 -70.5t-66.5 -31.5l-8 -1v-263q0 -75 4 -157h-132l-7 69h-3q-51 -80 -153 -80q-79 0 -125.5 52.5t-46.5 160.5v287h153v-263q0 -114 76 -114q54 0 76 53q5 11 5 33v291h93q52 0 52 41q0 30 -21 66z" />
    <glyph glyph-name="Aringacute" unicode="&#x1fa;" horiz-adv-x="656" 
d="M329 693q-49 0 -78 25.5t-29 63.5t29 64t79 26t78 -25.5t28 -64.5t-28.5 -64t-78.5 -25zM328 744q21 0 32.5 10.5t11.5 27.5t-12.5 29t-32.5 12t-30.5 -12t-10.5 -29q0 -16 11.5 -27t30.5 -11zM364 982h166l-148 -93h-126zM416 173h-193l-48 -173h-158l206 674h200
l209 -674h-164zM245 287h149l-42 143q-9 30 -34 130h-2l-14 -60.5t-17 -69.5z" />
    <glyph glyph-name="aringacute" unicode="&#x1fb;" horiz-adv-x="528" 
d="M312 861h140l-147 -116h-104zM265 525q-52 0 -84 27.5t-32 69.5q0 43 31.5 71.5t85.5 28.5q53 0 82.5 -28t29.5 -72q0 -42 -31 -69.5t-82 -27.5zM264 575q22 0 34 14t12 34t-12.5 34.5t-34.5 14.5q-21 0 -32.5 -15t-11.5 -35q0 -18 12.5 -32.5t32.5 -14.5zM476 0h-137
l-9 49h-3q-49 -60 -140 -60q-71 0 -114.5 44.5t-43.5 105.5q0 93 76.5 140.5t210.5 46.5v7q0 63 -89 63q-76 0 -135 -37l-28 98q77 43 190 43q114 0 164.5 -58t50.5 -153v-170q0 -81 7 -119zM321 178v53q-142 2 -142 -77q0 -28 16.5 -43t43.5 -15q28 0 49.5 16t29.5 40
q3 12 3 26z" />
    <glyph glyph-name="AEacute" unicode="&#x1fc;" horiz-adv-x="868" 
d="M159 0h-157l288 674h513v-125h-277l18 -143h255v-124h-235l20 -157h256v-125h-387l-24 184h-196zM278 306h134l-20 163q-1 10 -12 98h-3l-34 -99zM481 833h160l-123 -123h-122z" />
    <glyph glyph-name="aeacute" unicode="&#x1fd;" horiz-adv-x="803" 
d="M770 203h-310q2 -46 38 -73.5t94 -27.5q75 0 137 26l21 -102q-71 -37 -180 -37q-62 0 -112 23t-74 64h-4q-64 -87 -182 -87q-78 0 -123.5 44t-45.5 109q0 88 78 134.5t211 45.5v14q0 10 -6.5 22t-29 24.5t-57.5 12.5q-69 0 -131 -37l-30 96q83 46 173 46q116 0 161 -79h3
q60 79 167 79q101 0 153 -72t52 -171q0 -18 -3 -54zM322 178v51q-65 1 -104.5 -18t-39.5 -58q0 -27 18 -42t45 -15q54 0 77 51q4 8 4 31zM459 305h174q1 34 -18 65t-65 31q-43 0 -66.5 -31t-24.5 -65zM414 702h140l-122 -152h-104z" />
    <glyph glyph-name="Oslashacute" unicode="&#x1fe;" horiz-adv-x="717" 
d="M154 -66l-82 64l56 85q-93 98 -93 253q0 151 90.5 250t234.5 99q84 0 149 -35l55 81l87 -58l-57 -84q89 -95 89 -248q0 -162 -90.5 -257t-233.5 -95q-79 0 -144 34zM215 214l223 328q-35 24 -78 24q-80 0 -126 -63.5t-46 -165.5q0 -65 26 -123h1zM505 454l-220 -323
q31 -23 74 -23q79 0 125 63.5t46 167.5q0 57 -22 114zM368 838h160l-123 -123h-121z" />
    <glyph glyph-name="oslashacute" unicode="&#x1ff;" horiz-adv-x="577" 
d="M288 500q70 0 119 -26l47 69l53 -37l-45 -67q82 -71 82 -193q0 -123 -75.5 -190t-179.5 -67q-67 0 -116 26l-49 -71l-50 40l44 65q-85 69 -85 195q0 115 70.5 185.5t184.5 70.5zM199 166l143 208q-25 18 -54 18q-55 0 -82 -44t-27 -103q0 -48 18 -78zM379 319l-142 -203
q19 -18 51 -18q50 0 79.5 39.5t29.5 104.5q0 45 -15 76zM303 702h141l-122 -152h-105z" />
    <glyph glyph-name="Scommaaccent" unicode="&#x218;" horiz-adv-x="540" 
d="M40 31l31 126q82 -42 169 -42q52 0 79.5 19.5t27.5 53.5q0 31 -25.5 52t-87.5 43q-185 64 -185 199q0 88 69 145.5t186 57.5q96 0 172 -34l-34 -123q-66 32 -141 32q-47 0 -72.5 -18.5t-25.5 -46.5q0 -30 27 -49t98 -46q90 -33 132.5 -81.5t42.5 -119.5q0 -90 -70 -149.5
t-202 -59.5q-55 0 -107.5 12t-83.5 29zM199 -241l-23 64q28 6 47 21.5t19 39.5q0 25 -30 60l106 17q39 -29 39 -79q0 -59 -44 -90t-114 -33z" />
    <glyph glyph-name="scommaaccent" unicode="&#x219;" horiz-adv-x="434" 
d="M33 24l27 109q23 -14 61 -25.5t70 -11.5q65 0 65 41q0 19 -14.5 30.5t-57.5 25.5q-141 47 -139 147q0 69 55 114.5t144 45.5q82 0 138 -28l-27 -105q-51 28 -106 28q-58 0 -58 -40q0 -17 16.5 -28.5t62.5 -27.5q69 -24 100.5 -60t32.5 -91q0 -71 -55 -114.5t-157 -43.5
q-95 0 -158 34zM145 -242l-23 65q27 5 46.5 21t19.5 40q0 27 -29 60l106 17q39 -29 39 -79q0 -59 -44.5 -90.5t-114.5 -33.5z" />
    <glyph glyph-name="uni021A" unicode="&#x21a;" horiz-adv-x="548" 
d="M196 0v546h-181v128h518v-128h-184v-546h-153zM192 -241l-23 64q28 6 47 21.5t19 39.5q0 27 -29 60l106 17q38 -29 38 -79q0 -59 -44 -90t-114 -33z" />
    <glyph glyph-name="uni021B" unicode="&#x21b;" horiz-adv-x="367" 
d="M82 595l149 34v-140h109v-112h-109v-177q0 -46 13 -66t47 -20q23 0 45 4l1 -115q-33 -13 -99 -13q-74 0 -114 42q-42 43 -42 145v200h-65v112h65v106zM126 -244l-23 65q28 6 47 21.5t19 39.5q0 28 -30 60l106 18q39 -29 39 -80q0 -59 -44 -90t-114 -34z" />
    <glyph glyph-name="uni021C" unicode="&#x21c;" horiz-adv-x="537" 
d="M75 -125l-17 116q55 5 116.5 27t111.5 65t50 93q0 40 -29.5 68t-87.5 28q-50 0 -101 -17l-17 102q77 15 133 53t56 90q0 30 -25 49t-65 19q-64 0 -134 -34l-29 99q89 52 197 52q91 0 149 -42.5t58 -113.5q0 -52 -32.5 -94t-86.5 -67v-2q77 -11 126.5 -58t49.5 -124
q0 -126 -123.5 -214t-299.5 -95z" />
    <glyph glyph-name="uni021D" unicode="&#x21d;" horiz-adv-x="474" 
d="M51 -209l-17 116q28 0 64.5 6.5t82 20.5t76 44.5t30.5 72.5q0 33 -23 56.5t-78 23.5q-33 0 -85 -16l-21 102q170 35 170 109q0 28 -22 43t-62 15q-50 0 -120 -35l-27 99q76 52 187 52q89 0 140.5 -38t51.5 -106q0 -85 -104 -130v-3q71 -10 111 -51.5t40 -105.5
q0 -80 -56 -143t-144.5 -96t-193.5 -36z" />
    <glyph glyph-name="uni0232" unicode="&#x232;" horiz-adv-x="603" 
d="M374 0h-152v276l-213 398h174l69 -162q22 -51 52 -129h2q16 46 51 129l68 162h171l-222 -393v-281zM172 815h259v-81h-259v81z" />
    <glyph glyph-name="uni0233" unicode="&#x233;" horiz-adv-x="523" 
d="M6 489h169l73 -240q18 -67 24 -91h3q4 15 11.5 48t10.5 43l60 240h163l-114 -322q-50 -140 -89.5 -211t-82.5 -110q-65 -56 -147 -67l-32 129q31 5 66 26q38 20 63 61q8 11 8 22t-7 25zM136 665h251v-83h-251v83z" />
    <glyph glyph-name="circumflex" unicode="&#x2c6;" 
d="M99 702h103l99 -152h-99l-51 87h-2l-50 -87h-99z" />
    <glyph glyph-name="caron" unicode="&#x2c7;" 
d="M201 550h-103l-99 152h99l51 -87h2l50 87h100z" />
    <glyph glyph-name="uni02C9" unicode="&#x2c9;" 
d="M25 665h251v-83h-251v83z" />
    <glyph glyph-name="breve" unicode="&#x2d8;" 
d="M11 692h79q9 -61 59 -61q29 0 44 17.5t17 43.5h79q-1 -65 -37 -103.5t-103 -38.5t-102 39.5t-36 102.5z" />
    <glyph glyph-name="dotaccent" unicode="&#x2d9;" 
d="M122 557q-30 0 -50.5 20.5t-20.5 49.5q0 31 20.5 51t50.5 20q29 0 48.5 -20t19.5 -51q0 -29 -19.5 -49.5t-48.5 -20.5z" />
    <glyph glyph-name="ring" unicode="&#x2da;" 
d="M142 539q-52 0 -84 27.5t-32 68.5q0 44 31.5 72.5t85.5 28.5q53 0 82.5 -28t29.5 -72q0 -42 -31 -69.5t-82 -27.5zM141 589q22 0 34 14t12 34t-12.5 34.5t-34.5 14.5q-21 0 -32.5 -15t-11.5 -35q0 -18 12.5 -32.5t32.5 -14.5z" />
    <glyph glyph-name="ogonek" unicode="&#x2db;" 
d="M82 2h81q-25 -47 -25 -73q0 -23 14.5 -38t38.5 -15q25 0 45 8l21 -71q-41 -32 -101 -32q-54 0 -83.5 27t-29.5 79q0 62 39 115z" />
    <glyph glyph-name="tilde" unicode="&#x2dc;" 
d="M80 558h-72q-2 62 20 96.5t62 34.5q25 0 65 -20q32 -20 42 -20q12 0 18 9.5t8 35.5h70q4 -129 -82 -129q-27 0 -69 22q-29 16 -38 16q-22 0 -24 -45z" />
    <glyph glyph-name="hungarumlaut" unicode="&#x2dd;" 
d="M61 701h120l-98 -149h-85zM234 701h120l-97 -149h-86z" />
    <glyph glyph-name="uni037E" unicode="&#x37e;" horiz-adv-x="277" 
d="M124 -110l-101 -9q42 155 52 278l154 5q-41 -149 -105 -274zM147 285q-42 0 -68 27.5t-26 69.5q0 43 26 70t68 27t68 -27t26 -70q0 -42 -26 -69.5t-68 -27.5z" />
    <glyph glyph-name="tonos" unicode="&#x384;" horiz-adv-x="303" 
d="M130 702h133l-80 -152h-99z" />
    <glyph glyph-name="dieresistonos" unicode="&#x385;" horiz-adv-x="435" 
d="M180 729h112l-55 -175h-78zM69 564q-27 0 -45 18.5t-18 44.5t18.5 44t45.5 18q25 0 42.5 -17.5t17.5 -44.5q0 -26 -17.5 -44.5t-43.5 -18.5zM364 564q-26 0 -44 18.5t-18 44.5t18 44t45 18q26 0 43.5 -17.5t17.5 -44.5q0 -26 -17.5 -44.5t-44.5 -18.5z" />
    <glyph glyph-name="Alphatonos" unicode="&#x386;" horiz-adv-x="664" 
d="M21 674h122l-37 -174h-87zM424 173h-194l-47 -173h-158l206 674h199l210 -674h-164zM252 287h149l-42 143q-6 20 -33 130h-3q-24 -106 -30 -130z" />
    <glyph glyph-name="anoteleia" unicode="&#x387;" horiz-adv-x="277" 
d="M138 214q-43 0 -70.5 28.5t-27.5 72.5t28 72.5t71 28.5t70 -28t28 -73q0 -45 -27 -73t-72 -28z" />
    <glyph glyph-name="Epsilontonos" unicode="&#x388;" horiz-adv-x="642" 
d="M2 674h122l-37 -174h-87zM575 409v-124h-248v-160h277v-125h-429v674h415v-125h-263v-140h248z" />
    <glyph glyph-name="Etatonos" unicode="&#x389;" horiz-adv-x="797" 
d="M2 674h122l-37 -174h-87zM174 674h153v-259h251v259h152v-674h-152v282h-251v-282h-153v674z" />
    <glyph glyph-name="Iotatonos" unicode="&#x38a;" horiz-adv-x="393" 
d="M2 674h122l-37 -174h-87zM175 674h152v-674h-152v674z" />
    <glyph glyph-name="Omicrontonos" unicode="&#x38c;" horiz-adv-x="792" 
d="M2 674h122l-37 -174h-87zM437 685q150 0 235 -97.5t85 -243.5q0 -164 -90.5 -259.5t-239.5 -95.5q-146 0 -232 97.5t-86 245.5q0 153 90.5 253t237.5 100zM434 564q-76 0 -120 -64t-44 -165q0 -100 44.5 -162.5t119.5 -62.5t118.5 64t43.5 165q0 95 -43 160t-119 65z" />
    <glyph glyph-name="Upsilontonos" unicode="&#x38e;" horiz-adv-x="779" 
d="M2 674h122l-37 -174h-87zM159 554l24 126q48 -1 102 -23.5t93 -66.5q74 -80 88 -216h7q15 122 95 210q39 42 88.5 68t89.5 28l24 -129q-71 -20 -132 -94.5t-85 -172.5q-17 -71 -17 -138v-146h-153v147q0 69 -11 132q-21 113 -74 186t-139 89z" />
    <glyph glyph-name="Omegatonos" unicode="&#x38f;" horiz-adv-x="814" 
d="M2 674h122l-37 -174h-87zM401 0h-299v115h133v4q-50 40 -85 104t-35 146q0 134 93.5 225t239.5 91q148 0 235 -90t87 -215q0 -154 -123 -261v-4h135v-115h-297v89q128 96 128 261q0 89 -46 151.5t-122 62.5t-124 -61.5t-48 -152.5q0 -81 37 -154t91 -107v-89z" />
    <glyph glyph-name="iotadieresistonos" unicode="&#x390;" horiz-adv-x="280" 
d="M110 718h112l-56 -173h-77zM0 554q-26 0 -44.5 18t-18.5 44t18.5 43.5t45.5 17.5q25 0 42 -17.5t17 -43.5t-17 -44t-43 -18zM293 554q-26 0 -44 18t-18 44t18 43.5t44 17.5t43.5 -17.5t17.5 -43.5t-17 -44t-44 -18zM213 489v-337q0 -28 11 -38.5t35 -8.5l-8 -106
q-22 -10 -64 -10q-63 0 -94.5 33t-31.5 116v351h152z" />
    <glyph glyph-name="Alpha" unicode="&#x391;" horiz-adv-x="656" 
d="M416 173h-193l-48 -173h-158l206 674h200l209 -674h-164zM245 287h149l-42 143q-9 30 -34 130h-2l-14 -60.5t-17 -69.5z" />
    <glyph glyph-name="Beta" unicode="&#x392;" horiz-adv-x="604" 
d="M66 3v662q70 14 197 14q135 0 199 -38q81 -43 81 -132q0 -47 -28 -85.5t-83 -58.5v-2q60 -16 97 -59.5t37 -106.5q0 -86 -70 -143q-77 -61 -265 -61q-97 0 -165 10zM217 564v-157h50q59 0 91 22.5t32 60.5q0 78 -108 78q-39 0 -65 -4zM217 298v-190q15 -2 59 -2
q57 0 93.5 23.5t36.5 73.5q0 48 -38 71.5t-99 23.5h-52z" />
    <glyph glyph-name="Gamma" unicode="&#x393;" horiz-adv-x="482" 
d="M66 674h409v-128h-256v-546h-153v674z" />
    <glyph glyph-name="uni0394" unicode="&#x394;" horiz-adv-x="648" 
d="M16 0v76l216 598h185l212 -597v-77h-613zM181 125h273l-95 282q-25 79 -41 144h-4q-22 -87 -37 -135z" />
    <glyph glyph-name="Epsilon" unicode="&#x395;" horiz-adv-x="534" 
d="M467 409v-124h-248v-160h277v-125h-430v674h416v-125h-263v-140h248z" />
    <glyph glyph-name="Zeta" unicode="&#x396;" horiz-adv-x="577" 
d="M23 0v82l321 462v4h-291v126h489v-88l-314 -456v-4h319v-126h-524z" />
    <glyph glyph-name="Eta" unicode="&#x397;" horiz-adv-x="689" 
d="M66 674h153v-259h251v259h152v-674h-152v282h-251v-282h-153v674z" />
    <glyph glyph-name="Theta" unicode="&#x398;" horiz-adv-x="719" 
d="M354 -11q-147 0 -233 97.5t-86 245.5q0 154 91 253.5t238 99.5q150 0 235.5 -97.5t85.5 -243.5q0 -164 -91 -259.5t-240 -95.5zM360 110q77 0 120.5 63.5t43.5 165.5q0 96 -43.5 160.5t-120.5 64.5q-76 0 -120.5 -65t-44.5 -163t44.5 -162t120.5 -64zM254 405h210v-123
h-210v123z" />
    <glyph glyph-name="Iota" unicode="&#x399;" horiz-adv-x="285" 
d="M66 674h153v-674h-153v674z" />
    <glyph glyph-name="Kappa" unicode="&#x39a;" horiz-adv-x="614" 
d="M66 0v674h151v-298h3l46 74l153 224h187l-223 -287l235 -387h-178l-165 291l-58 -71v-220h-151z" />
    <glyph glyph-name="Lambda" unicode="&#x39b;" horiz-adv-x="648" 
d="M633 0h-166l-115 404l-35 144h-2q-29 -138 -31 -145l-107 -403h-160l206 674h197z" />
    <glyph glyph-name="Mu" unicode="&#x39c;" horiz-adv-x="846" 
d="M646 0l-10 258q-6 162 -6 277h-3q-31 -128 -75 -261l-82 -263h-119l-72 261q-38 136 -61 263h-2q-1 -12 -5 -120.5t-7 -158.5l-12 -256h-141l43 674h203l66 -225q38 -142 57 -241h3q34 140 64 242l72 224h199l37 -674h-149z" />
    <glyph glyph-name="Nu" unicode="&#x39d;" horiz-adv-x="690" 
d="M206 0h-140v674h178l140 -247q63 -112 110 -231h3q-13 116 -13 281v197h140v-674h-160l-144 260q-71 128 -117 238l-3 -1q6 -133 6 -294v-203z" />
    <glyph glyph-name="Xi" unicode="&#x39e;" horiz-adv-x="574" 
d="M56 674h468v-124h-468v124zM88 407h404v-123h-404v123zM42 125h496v-125h-496v125z" />
    <glyph glyph-name="Omicron" unicode="&#x39f;" horiz-adv-x="717" 
d="M363 685q150 0 235 -97.5t85 -243.5q0 -164 -91 -259.5t-240 -95.5q-146 0 -231.5 97.5t-85.5 245.5q0 154 90.5 253.5t237.5 99.5zM359 564q-76 0 -119.5 -64t-43.5 -165q0 -100 44.5 -162.5t119.5 -62.5t118.5 64t43.5 165q0 95 -43.5 160t-119.5 65z" />
    <glyph glyph-name="Pi" unicode="&#x3a0;" horiz-adv-x="667" 
d="M600 674v-674h-152v546h-229v-546h-153v674h534z" />
    <glyph glyph-name="Rho" unicode="&#x3a1;" horiz-adv-x="581" 
d="M66 0v665q82 14 206 14q138 0 206 -54q72 -57 72 -156q0 -101 -62 -160q-75 -71 -219 -71q-31 0 -52 3v-241h-151zM217 558v-199q17 -4 51 -4q61 0 96 29t35 81q0 47 -31 73t-88 26q-41 0 -63 -6z" />
    <glyph glyph-name="Sigma" unicode="&#x3a3;" horiz-adv-x="578" 
d="M224 129v-4h321v-125h-515v86l200 248l-189 241v99h478v-125h-284v-3l158 -206z" />
    <glyph glyph-name="Tau" unicode="&#x3a4;" horiz-adv-x="548" 
d="M196 0v546h-181v128h518v-128h-184v-546h-153z" />
    <glyph glyph-name="Upsilon" unicode="&#x3a5;" horiz-adv-x="625" 
d="M9 554l23 126q48 -1 102 -23.5t93 -66.5q74 -80 88 -216h7q15 122 95 210q39 42 88.5 68t89.5 28l24 -129q-71 -20 -132 -94.5t-85 -172.5q-17 -71 -17 -138v-146h-153v147q0 66 -10 132q-21 113 -74.5 186t-138.5 89z" />
    <glyph glyph-name="Phi" unicode="&#x3a6;" horiz-adv-x="785" 
d="M463 27v-55h-143v55q-120 14 -203 92.5t-83 214.5q0 72 26.5 131.5t69.5 96.5t92 59.5t100 28.5v52h142v-52q119 -14 203 -94t84 -216q0 -135 -83 -216t-205 -97zM321 134v410q-53 -9 -93.5 -63.5t-40.5 -146.5q0 -83 40.5 -136.5t93.5 -63.5zM463 544v-410
q55 10 95 60.5t40 140.5q0 94 -40 147.5t-95 61.5z" />
    <glyph glyph-name="Chi" unicode="&#x3a7;" horiz-adv-x="613" 
d="M597 0h-176l-61 122l-60 121h-2q-8 -23 -52 -121l-56 -122h-174l195 341l-188 333h175l59 -123q28 -58 51 -112h2q16 44 46 112l57 123h174l-190 -329z" />
    <glyph glyph-name="Psi" unicode="&#x3a8;" horiz-adv-x="742" 
d="M702 674v-195q0 -143 -72 -215.5t-188 -79.5v-184h-140v184q-114 7 -187 71t-73 191v228h146v-205q0 -89 30 -127t84 -42v374h139v-375q114 9 114 202v173h147z" />
    <glyph glyph-name="uni03A9" unicode="&#x3a9;" horiz-adv-x="744" 
d="M331 0h-299v115h133v4q-50 40 -85.5 104t-35.5 146q0 133 94 224.5t240 91.5q148 0 234.5 -90t86.5 -215q0 -155 -122 -261v-4h135v-115h-297v89q127 97 127 261q0 89 -46 151.5t-121 62.5q-77 0 -125 -61.5t-48 -152.5q0 -80 37.5 -153.5t91.5 -107.5v-89z" />
    <glyph glyph-name="Iotadieresis" unicode="&#x3aa;" horiz-adv-x="285" 
d="M41 714q-30 0 -49.5 20t-19.5 48q0 29 20 48.5t49 19.5q28 0 47 -19.5t19 -48.5q0 -28 -19 -48t-47 -20zM245 714q-29 0 -48.5 20t-19.5 48q0 29 19.5 48.5t49.5 19.5q28 0 47 -19.5t19 -48.5q0 -28 -19 -48t-48 -20zM66 674h153v-674h-153v674z" />
    <glyph glyph-name="Upsilondieresis" unicode="&#x3ab;" horiz-adv-x="625" 
d="M215 698q-30 0 -49.5 20t-19.5 48q0 29 20 48.5t49 19.5q28 0 47 -19.5t19 -48.5q0 -28 -19 -48t-47 -20zM419 698q-29 0 -48.5 20t-19.5 48q0 29 19.5 48.5t49.5 19.5q28 0 47 -19.5t19 -48.5q0 -28 -19 -48t-48 -20zM9 554l23 126q48 -1 102 -23.5t93 -66.5
q74 -80 88 -216h7q15 122 95 210q39 42 88.5 68t89.5 28l24 -129q-71 -20 -132 -94.5t-85 -172.5q-17 -71 -17 -138v-146h-153v147q0 66 -10 132q-21 113 -74.5 186t-138.5 89z" />
    <glyph glyph-name="alphatonos" unicode="&#x3ac;" horiz-adv-x="583" 
d="M287 700h133l-80 -152h-99zM405 489h127q-14 -154 -14 -319q0 -39 12 -54t34 -13l-9 -106q-16 -8 -53 -8q-85 0 -106 89h-2q-53 -89 -157 -89q-87 0 -145.5 67.5t-58.5 177.5q0 118 67 192t155 74q93 0 134 -75h4q4 35 12 64zM187 242q0 -57 26 -95t66 -38
q32 0 56.5 26.5t32.5 64.5q3 26 3 49q0 29 -2 41q-7 42 -30.5 68t-55.5 26q-43 0 -69.5 -41t-26.5 -101z" />
    <glyph glyph-name="epsilontonos" unicode="&#x3ad;" horiz-adv-x="468" 
d="M246 700h133l-81 -152h-98zM426 132l21 -98q-71 -45 -192 -45q-58 0 -105.5 13.5t-82 49t-34.5 88.5q0 44 31 76t76 41v5q-84 27 -84 102q0 55 55 95.5t158 40.5q102 0 164 -37l-26 -96q-52 28 -115 28q-39 0 -61 -13t-22 -34q0 -43 112 -43h48v-99h-47q-125 -2 -125 -49
q0 -27 28.5 -41t69.5 -14q69 0 131 30z" />
    <glyph glyph-name="etatonos" unicode="&#x3ae;" horiz-adv-x="586" 
d="M289 700h133l-81 -152h-98zM213 0h-152v333q0 107 -16 156h134q15 -28 17 -67h3q19 30 58 54t93 24q79 0 127 -53t48 -157v-316q0 -130 11 -172h-145q-18 31 -18 173v296q0 106 -77 106q-29 0 -48.5 -16.5t-28.5 -40.5q-6 -14 -6 -38v-282z" />
    <glyph glyph-name="iotatonos" unicode="&#x3af;" horiz-adv-x="280" 
d="M130 701h136l-81 -152h-101zM213 489v-337q0 -28 11 -38.5t35 -8.5l-8 -106q-22 -10 -64 -10q-63 0 -94.5 33t-31.5 116v351h152z" />
    <glyph glyph-name="upsilondieresistonos" unicode="&#x3b0;" horiz-adv-x="558" 
d="M239 717h112l-56 -173h-77zM129 553q-27 0 -45 18t-18 44t18.5 44t44.5 18q25 0 42.5 -17.5t17.5 -44.5q0 -26 -17.5 -44t-42.5 -18zM423 553q-27 0 -44.5 18t-17.5 44t18 44t44 18t43.5 -17.5t17.5 -44.5q0 -26 -17.5 -44t-43.5 -18zM341 489h142q37 -79 37 -186
q0 -61 -13 -114t-40.5 -99.5t-78 -73.5t-118.5 -27q-96 0 -156.5 54t-60.5 157v127q0 124 -12 162h149q15 -16 15 -95v-184q0 -47 22 -72.5t55 -25.5q45 0 67 50.5t22 130.5q0 58 -10 114.5t-20 81.5z" />
    <glyph glyph-name="alpha" unicode="&#x3b1;" horiz-adv-x="583" 
d="M405 489h127q-14 -154 -14 -319q0 -39 12 -54t34 -13l-9 -106q-16 -8 -53 -8q-85 0 -106 89h-2q-53 -89 -157 -89q-87 0 -145.5 67.5t-58.5 177.5q0 118 67 192t155 74q93 0 134 -75h4q4 35 12 64zM187 242q0 -57 26 -95t66 -38q32 0 56.5 26.5t32.5 64.5q3 26 3 49
q0 29 -2 41q-7 42 -30.5 68t-55.5 26q-43 0 -69.5 -41t-26.5 -101z" />
    <glyph glyph-name="beta" unicode="&#x3b2;" horiz-adv-x="587" 
d="M207 34h-2v-58q0 -121 13 -174h-142q-18 40 -18 171v440q0 176 79 248q63 60 164 60q93 0 146 -52t53 -131q0 -44 -22 -87t-59 -62v-6q55 -13 95 -63t40 -120q0 -94 -61 -152.5t-152 -58.5q-85 0 -134 45zM205 441v-288q40 -50 97 -50q47 0 72.5 29.5t25.5 72.5
q0 50 -30.5 79t-77.5 33h-7h-8.5h-6.5v93q7 0 16 3q36 7 56.5 34.5t20.5 65.5q0 40 -19.5 65t-52.5 25q-86 0 -86 -162z" />
    <glyph glyph-name="gamma" unicode="&#x3b3;" horiz-adv-x="515" 
d="M320 -198h-148q5 173 -16 279q-42 201 -169 408h169q29 -45 64 -141t53 -193h4q73 159 73 291q0 12 -0.5 26t-0.5 17h145q2 -18 2 -37q0 -91 -47 -204.5t-126 -228.5q-6 -10 -6 -24q0 -13 3 -193z" />
    <glyph glyph-name="delta" unicode="&#x3b4;" horiz-adv-x="576" 
d="M501 672l-39 -95q-16 12 -53 24t-72 12q-54 0 -54 -26q0 -5 3 -10.5t12 -14.5t16 -14.5l25 -20.5l81 -65q122 -96 122 -221q0 -113 -74 -182.5t-184 -69.5q-107 0 -179 67t-72 175q0 84 47.5 143t117.5 92v4l-19 17q-55 52 -55 102q0 52 54 92t145 40q57 0 105 -15
t73 -34zM326 357l-46 38q-91 -55 -91 -161q0 -57 30 -96.5t74 -39.5q42 0 69.5 36t27.5 94q0 74 -64 129z" />
    <glyph glyph-name="epsilon" unicode="&#x3b5;" horiz-adv-x="468" 
d="M426 132l21 -98q-71 -45 -192 -45q-58 0 -105.5 13.5t-82 49t-34.5 88.5q0 44 31 76t76 41v5q-84 27 -84 102q0 55 55 95.5t158 40.5q102 0 164 -37l-26 -96q-52 28 -115 28q-39 0 -61 -13t-22 -34q0 -43 112 -43h48v-99h-47q-125 -2 -125 -49q0 -27 28.5 -41t69.5 -14
q69 0 131 30z" />
    <glyph glyph-name="zeta" unicode="&#x3b6;" horiz-adv-x="441" 
d="M360 -152l-94 30q22 43 27 98q-61 10 -112 29q-146 56 -146 221q0 98 54 197.5t148 175.5v5h-47q-74 0 -112 13l14 96q32 -3 140 -3h185l22 -99q-101 -45 -174.5 -149t-73.5 -207q0 -105 85 -144q46 -23 148 -37q10 -2 10 -14q0 -50 -22 -112.5t-52 -99.5z" />
    <glyph glyph-name="eta" unicode="&#x3b7;" horiz-adv-x="586" 
d="M213 0h-152v333q0 107 -16 156h134q15 -28 17 -67h3q19 30 58 54t93 24q79 0 127 -53t48 -157v-316q0 -130 11 -172h-145q-18 31 -18 173v296q0 106 -77 106q-29 0 -48.5 -16.5t-28.5 -40.5q-6 -14 -6 -38v-282z" />
    <glyph glyph-name="theta" unicode="&#x3b8;" horiz-adv-x="570" 
d="M285 -11q-120 0 -186 95t-66 276q0 160 67.5 260.5t191.5 100.5q122 0 183.5 -97t61.5 -264q0 -173 -63.5 -272t-188.5 -99zM183 416h203q0 88 -26 143.5t-74 55.5q-49 0 -76 -56t-27 -143zM388 308h-204q0 -99 27 -156t77 -57t75 57t25 156z" />
    <glyph glyph-name="iota" unicode="&#x3b9;" horiz-adv-x="280" 
d="M213 489v-337q0 -28 11 -38.5t35 -8.5l-8 -106q-22 -10 -64 -10q-63 0 -94.5 33t-31.5 116v351h152z" />
    <glyph glyph-name="kappa" unicode="&#x3ba;" horiz-adv-x="548" 
d="M213 0h-152v365q0 99 -14 124h150q16 -18 16 -87v-117h3q30 37 147 204h173v-5l-192 -217v-4q31 -8 58.5 -40t61.5 -89l78 -134h-174l-55 98q-30 51 -50 75.5t-43 25.5h-7v-199z" />
    <glyph glyph-name="lambda" unicode="&#x3bb;" horiz-adv-x="518" 
d="M351 0l-67 221q-16 52 -28 104h-6q-6 -35 -23 -101l-65 -224h-158l171 449q5 13 5 26q0 11 -7 29q-16 43 -44 69.5t-58 26.5q-15 0 -22 -1l13 117q17 5 51 5q77 0 126 -58t90 -169l184 -494h-162z" />
    <glyph glyph-name="uni03BC" unicode="&#x3bc;" horiz-adv-x="585" 
d="M391 67h-3q-14 -30 -45.5 -52t-75.5 -22q-43 0 -69 29v-42q0 -126 11 -178h-135q-13 35 -13 177v510h152v-273q0 -105 74 -105q27 0 49 16.5t30 37.5q5 15 5 33v291h152v-330q0 -31 10 -43t32 -13l-9 -105q-18 -9 -54 -9q-88 0 -111 78z" />
    <glyph glyph-name="nu" unicode="&#x3bd;" horiz-adv-x="510" 
d="M-1 489h164l65 -227q7 -23 17 -64.5t14 -56.5h4q83 179 83 309q0 26 -1 39h143q3 -16 3 -38q0 -163 -175 -451h-147z" />
    <glyph glyph-name="xi" unicode="&#x3be;" horiz-adv-x="472" 
d="M396 436v-103h-28q-83 0 -128 -31t-45 -85q0 -43 31.5 -72t100.5 -47q52 -14 127 -25q11 -2 11 -13q0 -45 -22.5 -110.5t-50.5 -101.5l-94 30q19 43 24 98q-43 7 -76.5 14.5t-76 24.5t-70 39.5t-47 60t-19.5 85.5q0 71 42.5 124t109.5 71v6q-50 19 -77 56.5t-27 86.5
q0 74 61 125.5t170 51.5q80 0 139 -27l-25 -99q-41 19 -89 19q-49 0 -76 -25t-27 -62q0 -80 128 -90q11 -1 34 -1z" />
    <glyph glyph-name="omicron" unicode="&#x3bf;" horiz-adv-x="577" 
d="M294 500q112 0 181 -69.5t69 -180.5q0 -126 -75.5 -193.5t-182.5 -67.5q-110 0 -181.5 68t-71.5 184q0 118 71.5 188.5t189.5 70.5zM290 392q-51 0 -75.5 -43t-24.5 -104q0 -65 26.5 -106t73.5 -41q44 0 70.5 40.5t26.5 106.5q0 61 -24.5 104t-72.5 43z" />
    <glyph glyph-name="pi" unicode="&#x3c0;" horiz-adv-x="600" 
d="M569 374h-59v-221q0 -96 11 -153h-145q-17 24 -17 142v232h-106q-1 -91 -16.5 -205.5t-37.5 -168.5h-146q22 73 38 185t15 189q-58 0 -87 -7l-16 89q35 33 175 33h405z" />
    <glyph glyph-name="rho" unicode="&#x3c1;" horiz-adv-x="591" 
d="M216 -198h-148q-11 38 -11 173v222q0 98 25 153.5t68 91.5q70 58 166 58q109 0 175.5 -69.5t66.5 -183.5q0 -121 -68 -189.5t-159 -68.5q-82 0 -120 48h-2v-63q0 -134 7 -172zM209 232v-36q0 -15 3 -30q7 -23 32 -41.5t56 -18.5q49 0 76.5 38.5t27.5 99.5q0 59 -26 95.5
t-70 36.5t-71.5 -38t-27.5 -106z" />
    <glyph glyph-name="uni03C2" unicode="&#x3c2;" horiz-adv-x="458" 
d="M444 476l-30 -107q-45 17 -87 17q-60 0 -98.5 -41.5t-38.5 -105.5q0 -99 103 -132q44 -14 140 -32q9 -1 9 -14q0 -51 -22.5 -117t-49.5 -97l-95 30q18 36 26 98l-77 18q-85 24 -138 81.5t-53 154.5q0 110 77 190.5t210 80.5q76 0 124 -24z" />
    <glyph glyph-name="sigma" unicode="&#x3c3;" horiz-adv-x="594" 
d="M585 500l-7 -110q-37 0 -106 7l-1 -5q31 -28 47.5 -69t16.5 -81q0 -124 -72 -188.5t-177 -64.5q-110 0 -181.5 67t-71.5 183q0 119 73 190t198 71h281zM288 98q44 0 70.5 41t26.5 107q0 60 -23.5 103t-70.5 43q-51 0 -76 -43t-25 -104q0 -65 26 -106t72 -41z" />
    <glyph glyph-name="tau" unicode="&#x3c4;" horiz-adv-x="452" 
d="M364 106l-6 -106q-24 -11 -70 -11q-79 0 -112 42t-33 131v212h-41q-55 0 -92 -7l-19 90q45 32 172 32h280l-15 -115h-133v-202q0 -66 50 -66h19z" />
    <glyph glyph-name="upsilon" unicode="&#x3c5;" horiz-adv-x="558" 
d="M341 489h142q37 -79 37 -186q0 -61 -13 -114t-40.5 -99.5t-78 -73.5t-118.5 -27q-96 0 -156.5 54t-60.5 157v127q0 124 -12 162h149q15 -16 15 -95v-184q0 -47 22 -72.5t55 -25.5q45 0 67 50.5t22 130.5q0 58 -10 114.5t-20 81.5z" />
    <glyph glyph-name="phi" unicode="&#x3c6;" horiz-adv-x="711" 
d="M212 500l57 -82q-85 -58 -85 -167q0 -62 29 -104.5t78 -53.5v233q0 88 46.5 131t114.5 43q90 0 157.5 -68.5t67.5 -175.5q0 -116 -75.5 -186.5t-175.5 -80.5v-187h-135v187q-50 4 -95 21.5t-82 47.5t-59 79t-22 111q0 95 57 162.5t122 89.5zM426 357v-265q48 9 77.5 51
t29.5 110q0 60 -25 102t-56 42q-26 0 -26 -40z" />
    <glyph glyph-name="chi" unicode="&#x3c7;" horiz-adv-x="504" 
d="M5 489h163l95 -221h4q14 39 35 86l56 135h145l-169 -332l169 -349l-144 -34l-115 256l-5 -1q-3 -8 -15.5 -39l-22.5 -54l-72 -162l-129 35l173 348z" />
    <glyph glyph-name="psi" unicode="&#x3c8;" horiz-adv-x="726" 
d="M301 -198v187q-245 17 -245 268v108q0 87 -7 124h138q14 -17 14 -95v-126q0 -164 101 -173v522h134v-522q35 1 60.5 29t36.5 70t11 94q0 67 -10 123t-21 78h135q40 -70 40 -191q0 -58 -13.5 -109.5t-42 -95.5t-78.5 -72t-117 -32v-187h-136z" />
    <glyph glyph-name="omega" unicode="&#x3c9;" horiz-adv-x="733" 
d="M437 372l-3 -176q0 -35 13 -57.5t36 -22.5q30 0 49.5 39.5t19.5 111.5q0 63 -18 122.5t-51 97.5v2h138q31 -30 55 -91.5t24 -136.5q0 -127 -58 -199.5t-146 -72.5q-43 0 -78.5 20.5t-51.5 56.5h-5q-45 -77 -131 -77q-82 0 -139.5 67.5t-57.5 191.5q0 78 23.5 140.5
t57.5 100.5h137v-2q-71 -91 -71 -229q0 -69 20.5 -105.5t48.5 -36.5q22 0 35 22.5t12 56.5l-2 177h143z" />
    <glyph glyph-name="iotadieresis" unicode="&#x3ca;" horiz-adv-x="280" 
d="M40 547q-30 0 -50 20t-20 49q0 30 20 49.5t50 19.5q29 0 47.5 -19.5t18.5 -49.5q0 -29 -19 -49t-47 -20zM244 547q-30 0 -49 20t-19 49q0 30 19.5 49.5t48.5 19.5t48.5 -19.5t19.5 -49.5q0 -29 -19 -49t-49 -20zM213 489v-337q0 -28 11 -38.5t35 -8.5l-8 -106
q-22 -10 -64 -10q-63 0 -94.5 33t-31.5 116v351h152z" />
    <glyph glyph-name="upsilondieresis" unicode="&#x3cb;" horiz-adv-x="558" 
d="M170 547q-30 0 -50 20t-20 49q0 30 20 49.5t50 19.5q29 0 47.5 -19.5t18.5 -49.5q0 -29 -19 -49t-47 -20zM374 547q-30 0 -49 20t-19 49q0 30 19.5 49.5t49.5 19.5q29 0 48 -19.5t19 -49.5q0 -29 -19 -49t-49 -20zM341 489h142q37 -79 37 -186q0 -61 -13 -114
t-40.5 -99.5t-78 -73.5t-118.5 -27q-96 0 -156.5 54t-60.5 157v127q0 124 -12 162h149q15 -16 15 -95v-184q0 -47 22 -72.5t55 -25.5q45 0 67 50.5t22 130.5q0 58 -10 114.5t-20 81.5z" />
    <glyph glyph-name="omicrontonos" unicode="&#x3cc;" horiz-adv-x="577" 
d="M283 700h133l-81 -152h-98zM294 500q112 0 181 -69.5t69 -180.5q0 -126 -75.5 -193.5t-182.5 -67.5q-110 0 -181.5 68t-71.5 184q0 118 71.5 188.5t189.5 70.5zM290 392q-51 0 -75.5 -43t-24.5 -104q0 -65 26.5 -106t73.5 -41q44 0 70.5 40.5t26.5 106.5q0 61 -24.5 104
t-72.5 43z" />
    <glyph glyph-name="upsilontonos" unicode="&#x3cd;" horiz-adv-x="558" 
d="M266 701h136l-81 -152h-101zM341 489h142q37 -79 37 -186q0 -61 -13 -114t-40.5 -99.5t-78 -73.5t-118.5 -27q-96 0 -156.5 54t-60.5 157v127q0 124 -12 162h149q15 -16 15 -95v-184q0 -47 22 -72.5t55 -25.5q45 0 67 50.5t22 130.5q0 58 -10 114.5t-20 81.5z" />
    <glyph glyph-name="omegatonos" unicode="&#x3ce;" horiz-adv-x="733" 
d="M360 700h134l-81 -152h-99zM437 372l-3 -176q0 -35 13 -57.5t36 -22.5q30 0 49.5 39.5t19.5 111.5q0 63 -18 122.5t-51 97.5v2h138q31 -30 55 -91.5t24 -136.5q0 -127 -58 -199.5t-146 -72.5q-43 0 -78.5 20.5t-51.5 56.5h-5q-45 -77 -131 -77q-82 0 -139.5 67.5
t-57.5 191.5q0 78 23.5 140.5t57.5 100.5h137v-2q-71 -91 -71 -229q0 -69 20.5 -105.5t48.5 -36.5q22 0 35 22.5t12 56.5l-2 177h143z" />
    <glyph glyph-name="uni0401" unicode="&#x401;" horiz-adv-x="534" 
d="M467 409v-124h-248v-160h277v-125h-430v674h416v-125h-263v-140h248zM169 713q-30 0 -50 20t-20 48q0 29 20.5 49t49.5 20q28 0 47 -20t19 -49q0 -28 -19 -48t-47 -20zM376 713q-30 0 -49.5 20t-19.5 48q0 29 20 49t49 20q28 0 47.5 -20t19.5 -49q0 -28 -19.5 -48
t-47.5 -20z" />
    <glyph glyph-name="uni0402" unicode="&#x402;" horiz-adv-x="722" 
d="M15 674h560v-125h-233v-126h3q50 28 118 28q102 0 165 -80q59 -74 59 -199q0 -94 -37 -165t-106 -107q-56 -43 -124 -52l-23 125q60 15 88 48q42 45 42 141q0 84 -30 125q-31 41 -82 41q-42 0 -73 -24v-304h-153v549h-174v125z" />
    <glyph glyph-name="uni0403" unicode="&#x403;" horiz-adv-x="489" 
d="M66 674h408v-125h-255v-549h-153v674zM274 833h160l-123 -123h-122z" />
    <glyph glyph-name="uni0404" unicode="&#x404;" horiz-adv-x="595" 
d="M567 651l-31 -116q-58 27 -134 27q-86 0 -138.5 -45.5t-65.5 -116.5h306v-119h-304q7 -75 64 -121t147 -46q69 0 127 23l23 -115q-66 -33 -173 -33q-165 0 -259 93t-94 253q0 69 22.5 131t66 111.5t114 78.5t158.5 29q103 0 171 -34z" />
    <glyph glyph-name="uni0405" unicode="&#x405;" horiz-adv-x="540" 
d="M40 31l31 126q82 -42 169 -42q52 0 79.5 19.5t27.5 53.5q0 31 -25.5 52t-87.5 43q-185 64 -185 199q0 88 69 145.5t186 57.5q96 0 172 -34l-34 -123q-66 32 -141 32q-47 0 -72.5 -18.5t-25.5 -46.5q0 -30 27 -49t98 -46q90 -33 132.5 -81.5t42.5 -119.5q0 -90 -70 -149.5
t-202 -59.5q-55 0 -107.5 12t-83.5 29z" />
    <glyph glyph-name="uni0406" unicode="&#x406;" horiz-adv-x="285" 
d="M66 674h153v-674h-153v674z" />
    <glyph glyph-name="uni0407" unicode="&#x407;" horiz-adv-x="285" 
d="M66 674h153v-674h-153v674zM40 713q-30 0 -49.5 20t-19.5 48q0 29 20 49t49 20q28 0 47 -20t19 -49q0 -28 -19 -48t-47 -20zM247 713q-29 0 -48.5 20t-19.5 48q0 29 19.5 49t48.5 20q28 0 47.5 -20t19.5 -49q0 -28 -19 -48t-48 -20z" />
    <glyph glyph-name="uni0408" unicode="&#x408;" horiz-adv-x="411" 
d="M198 250v424h152v-426q0 -138 -61.5 -198.5t-178.5 -60.5q-63 0 -111 16l17 123q36 -12 78 -12q52 0 78 29.5t26 104.5z" />
    <glyph glyph-name="uni0409" unicode="&#x409;" horiz-adv-x="945" 
d="M124 674h442v-240q37 5 80 5q111 0 187.5 -55t76.5 -161q0 -95 -65 -154q-85 -76 -268 -76q-94 0 -162 10v546h-142v-160q0 -144 -26.5 -234t-97.5 -132q-59 -33 -133 -33l-20 122q47 7 78 38q50 52 50 230v294zM566 322v-212q27 -3 52 -3q56 0 95 30t39 83t-37 79.5
t-95 26.5q-31 0 -54 -4z" />
    <glyph glyph-name="uni040A" unicode="&#x40a;" horiz-adv-x="954" 
d="M66 674h153v-251h205v251h151v-242q46 4 83 4q112 0 186.5 -54.5t74.5 -158.5q0 -96 -65 -154q-87 -76 -267 -76q-95 0 -163 10v292h-205v-295h-153v674zM575 320v-209q24 -4 53 -4q58 0 95.5 29.5t37.5 82.5t-36.5 79t-93.5 26q-24 0 -56 -4z" />
    <glyph glyph-name="uni040B" unicode="&#x40b;" horiz-adv-x="730" 
d="M15 674h551v-125h-225v-136h4q60 40 142 40q85 0 132 -52q50 -54 50 -160v-241h-152v221q0 58 -24 85q-22 24 -63 24q-51 0 -89 -30v-300h-152v549h-174v125z" />
    <glyph glyph-name="uni040C" unicode="&#x40c;" horiz-adv-x="605" 
d="M66 674h151v-280h13l186 280h185l-235 -299q61 -15 96 -55.5t58 -107.5q54 -161 78 -212h-164q-13 26 -52 148q-20 66 -49.5 100t-86.5 34h-29v-282h-151v674zM311 828h160l-122 -123h-122z" />
    <glyph glyph-name="uni040E" unicode="&#x40e;" horiz-adv-x="588" 
d="M3 674h172l98 -237l47 -129h3q4 13 16 57t21 74l73 235h160l-126 -327q-79 -202 -133 -269q-71 -89 -179 -89q-45 0 -75 11l11 122q20 -5 50 -5q33 0 57 18.5t34 44.5q7 12 -2 31zM147 830h103q3 -61 45 -61q41 0 47 61h102q-9 -123 -151 -123q-134 0 -146 123z" />
    <glyph glyph-name="uni040F" unicode="&#x40f;" horiz-adv-x="674" 
d="M66 674h153v-549h237v549h152v-674h-200l-8 -184h-125l-8 184h-201v674z" />
    <glyph glyph-name="uni0410" unicode="&#x410;" horiz-adv-x="656" 
d="M416 173h-193l-48 -173h-158l206 674h200l209 -674h-164zM245 287h149l-42 143q-9 30 -34 130h-2l-14 -60.5t-17 -69.5z" />
    <glyph glyph-name="uni0411" unicode="&#x411;" horiz-adv-x="603" 
d="M66 674h448v-124h-296v-116q38 5 82 5q116 0 190 -55q78 -56 78 -161q0 -95 -64 -152q-87 -78 -274 -78q-96 0 -164 10v671zM217 322v-211q23 -4 59 -4q61 0 99 35q33 30 33 78t-36 76q-39 30 -101 30q-29 0 -54 -4z" />
    <glyph glyph-name="uni0412" unicode="&#x412;" horiz-adv-x="604" 
d="M66 3v662q70 14 197 14q135 0 199 -38q81 -43 81 -132q0 -47 -28 -85.5t-83 -58.5v-2q60 -16 97 -59.5t37 -106.5q0 -86 -70 -143q-77 -61 -265 -61q-97 0 -165 10zM217 564v-157h50q59 0 91 22.5t32 60.5q0 78 -108 78q-39 0 -65 -4zM217 298v-190q15 -2 59 -2
q57 0 93.5 23.5t36.5 73.5q0 48 -38 71.5t-99 23.5h-52z" />
    <glyph glyph-name="uni0413" unicode="&#x413;" horiz-adv-x="489" 
d="M66 674h408v-125h-255v-549h-153v674z" />
    <glyph glyph-name="uni0414" unicode="&#x414;" horiz-adv-x="688" 
d="M160 674h441v-554l67 -4l-7 -287h-116l-8 171h-394l-8 -171h-116l-6 287l56 4q43 77 64 150q27 97 27 224v180zM301 550v-90q0 -120 -30 -222q-19 -63 -47 -114h224v426h-147z" />
    <glyph glyph-name="uni0415" unicode="&#x415;" horiz-adv-x="534" 
d="M467 409v-124h-248v-160h277v-125h-430v674h416v-125h-263v-140h248z" />
    <glyph glyph-name="uni0416" unicode="&#x416;" horiz-adv-x="875" 
d="M5 674h178l167 -280h14v280h146v-280h14l168 280h177l-230 -301q64 -7 102 -49.5t62 -114.5q8 -23 20.5 -66.5t24 -78.5t24.5 -64h-154q-12 26 -48 149q-19 64 -49 98.5t-87 34.5h-24v-282h-146v282h-25q-56 0 -86 -34.5t-49 -98.5q-36 -123 -48 -149h-154q13 30 25 63
t26 79t20 63q23 72 60.5 114.5t101.5 53.5z" />
    <glyph glyph-name="uni0417" unicode="&#x417;" horiz-adv-x="544" 
d="M77 522l-36 109q91 54 210 54q109 0 172 -48.5t63 -124.5q0 -61 -37 -102.5t-98 -56.5v-2q67 -9 112.5 -52t45.5 -108q0 -54 -25 -94.5t-67 -63t-89 -33.5t-97 -11q-120 0 -202 47l32 117q27 -14 73.5 -27t89.5 -13q58 0 91 23t33 65q0 90 -141 90h-64v112h63q53 0 87 23
t34 62q0 34 -27 54t-75 20q-68 0 -148 -40z" />
    <glyph glyph-name="uni0418" unicode="&#x418;" horiz-adv-x="690" 
d="M66 674h140v-200q0 -185 -8 -305h4q53 119 120 240l145 265h156v-674h-140v199q0 176 11 284h-3q-47 -121 -114 -240l-137 -243h-174v674z" />
    <glyph glyph-name="uni0419" unicode="&#x419;" horiz-adv-x="690" 
d="M66 674h140v-200q0 -185 -8 -305h4q53 119 120 240l145 265h156v-674h-140v199q0 176 11 284h-3q-47 -121 -114 -240l-137 -243h-174v674zM196 828h104q2 -61 44 -61q41 0 47 61h102q-9 -123 -151 -123q-134 0 -146 123z" />
    <glyph glyph-name="uni041A" unicode="&#x41a;" horiz-adv-x="605" 
d="M66 674h151v-280h13l186 280h185l-235 -299q61 -15 96 -55.5t58 -107.5q54 -161 78 -212h-164q-13 26 -52 148q-20 66 -49.5 100t-86.5 34h-29v-282h-151v674z" />
    <glyph glyph-name="uni041B" unicode="&#x41b;" horiz-adv-x="645" 
d="M124 674h454v-674h-152v549h-153v-160q0 -144 -26.5 -234t-97.5 -132q-59 -33 -134 -33l-19 123q49 6 77 36q51 52 51 230v295z" />
    <glyph glyph-name="uni041C" unicode="&#x41c;" horiz-adv-x="846" 
d="M646 0l-10 258q-6 162 -6 277h-3q-31 -128 -75 -261l-82 -263h-119l-72 261q-38 136 -61 263h-2q-1 -12 -5 -120.5t-7 -158.5l-12 -256h-141l43 674h203l66 -225q38 -142 57 -241h3q34 140 64 242l72 224h199l37 -674h-149z" />
    <glyph glyph-name="uni041D" unicode="&#x41d;" horiz-adv-x="689" 
d="M66 674h153v-259h251v259h152v-674h-152v282h-251v-282h-153v674z" />
    <glyph glyph-name="uni041E" unicode="&#x41e;" horiz-adv-x="717" 
d="M363 685q150 0 235 -97.5t85 -243.5q0 -164 -91 -259.5t-240 -95.5q-146 0 -231.5 97.5t-85.5 245.5q0 154 90.5 253.5t237.5 99.5zM359 564q-76 0 -119.5 -64t-43.5 -165q0 -100 44.5 -162.5t119.5 -62.5t118.5 64t43.5 165q0 95 -43.5 160t-119.5 65z" />
    <glyph glyph-name="uni041F" unicode="&#x41f;" horiz-adv-x="677" 
d="M66 674h545v-674h-153v549h-239v-549h-153v674z" />
    <glyph glyph-name="uni0420" unicode="&#x420;" horiz-adv-x="581" 
d="M66 0v665q82 14 206 14q138 0 206 -54q72 -57 72 -156q0 -101 -62 -160q-75 -71 -219 -71q-31 0 -52 3v-241h-151zM217 558v-199q17 -4 51 -4q61 0 96 29t35 81q0 47 -31 73t-88 26q-41 0 -63 -6z" />
    <glyph glyph-name="uni0421" unicode="&#x421;" horiz-adv-x="595" 
d="M538 138l23 -119q-58 -29 -173 -29q-169 0 -261 93.5t-92 243.5q0 167 104.5 262.5t263.5 95.5q108 0 166 -30l-31 -121q-60 25 -128 25q-95 0 -155 -57.5t-60 -165.5q0 -102 57.5 -161t158.5 -59q72 0 127 22z" />
    <glyph glyph-name="uni0422" unicode="&#x422;" horiz-adv-x="548" 
d="M196 0v546h-181v128h518v-128h-184v-546h-153z" />
    <glyph glyph-name="uni0423" unicode="&#x423;" horiz-adv-x="588" 
d="M3 674h172l98 -237l47 -129h3q4 13 16 57t21 74l73 235h160l-126 -327q-79 -202 -133 -269q-71 -89 -179 -89q-45 0 -75 11l11 122q20 -5 50 -5q33 0 57 18.5t34 44.5q7 12 -2 31z" />
    <glyph glyph-name="uni0424" unicode="&#x424;" horiz-adv-x="789" 
d="M324 702h143v-59q56 -4 105.5 -23t91 -53.5t66 -93t24.5 -134.5q0 -75 -23.5 -133t-65.5 -93.5t-91.5 -54.5t-108.5 -25v-61h-143v61q-57 4 -106.5 23t-91 53.5t-65.5 92t-24 132.5q0 76 26.5 136t70 95t92 54.5t100.5 23.5v59zM323 139v400q-53 -7 -94 -56t-41 -146
q0 -91 41 -141t94 -57zM466 539v-400q54 6 94.5 54.5t40.5 145.5t-39.5 145t-95.5 55z" />
    <glyph glyph-name="uni0425" unicode="&#x425;" horiz-adv-x="613" 
d="M597 0h-176l-61 122l-60 121h-2q-8 -23 -52 -121l-56 -122h-174l195 341l-188 333h175l59 -123q28 -58 51 -112h2q16 44 46 112l57 123h174l-190 -329z" />
    <glyph glyph-name="uni0426" unicode="&#x426;" horiz-adv-x="694" 
d="M66 674h153v-549h236v549h152v-554l68 -4l-7 -287h-116l-8 171h-478v674z" />
    <glyph glyph-name="uni0427" unicode="&#x427;" horiz-adv-x="642" 
d="M60 674h152v-195q0 -114 113 -114q51 0 99 25v284h152v-674h-152v278h-3q-71 -35 -151 -35q-96 0 -153 52.5t-57 157.5v221z" />
    <glyph glyph-name="uni0428" unicode="&#x428;" horiz-adv-x="913" 
d="M66 674h150v-549h166v549h149v-549h167v549h149v-674h-781v674z" />
    <glyph glyph-name="uni0429" unicode="&#x429;" horiz-adv-x="934" 
d="M66 674h150v-549h166v549h149v-549h167v549h149v-554l67 -4l-7 -287h-116l-8 171h-717v674z" />
    <glyph glyph-name="uni042A" unicode="&#x42a;" horiz-adv-x="706" 
d="M12 674h322v-234q48 5 81 5q106 0 181 -58t75 -161q0 -92 -55 -147q-83 -86 -269 -86q-97 0 -165 10v547h-170v124zM333 324v-213q20 -4 55 -4q54 0 88.5 30t34.5 83t-35 80.5t-88 27.5q-23 0 -55 -4z" />
    <glyph glyph-name="uni042B" unicode="&#x42b;" horiz-adv-x="852" 
d="M66 674h152v-235q38 6 75 6q113 0 190 -56.5t77 -164.5q0 -88 -54 -145q-85 -86 -277 -86q-95 0 -163 10v671zM217 324v-213q17 -4 52 -4q54 0 92.5 30t38.5 83t-39.5 80.5t-89.5 27.5q-24 0 -54 -4zM622 674h152v-674h-152v674z" />
    <glyph glyph-name="uni042C" unicode="&#x42c;" horiz-adv-x="603" 
d="M66 674h152v-234q52 5 82 5q116 0 192 -56t76 -163q0 -90 -54 -147q-85 -86 -283 -86q-97 0 -165 10v671zM217 324v-213q23 -4 57 -4q59 0 96.5 28.5t37.5 83.5t-36.5 82t-95.5 27q-21 0 -59 -4z" />
    <glyph glyph-name="uni042D" unicode="&#x42d;" horiz-adv-x="587" 
d="M99 282v119h289q-8 71 -56.5 116t-129.5 45q-69 0 -137 -28l-30 113q87 38 179 38q168 0 253 -99t85 -250q0 -165 -99 -256t-253 -91q-103 0 -173 32l26 117q60 -24 135 -24q84 0 137 46.5t62 121.5h-288z" />
    <glyph glyph-name="uni042E" unicode="&#x42e;" horiz-adv-x="921" 
d="M66 674h152v-263h81q21 124 99.5 199t195.5 75q137 0 215.5 -97.5t78.5 -243.5q0 -164 -83.5 -259.5t-220.5 -95.5q-123 0 -200 81.5t-89 212.5h-77v-283h-152v674zM589 109q68 0 106.5 64.5t38.5 165.5q0 96 -38 161t-106 65q-69 0 -107.5 -65.5t-38.5 -163.5t39 -162.5
t106 -64.5z" />
    <glyph glyph-name="uni042F" unicode="&#x42f;" horiz-adv-x="600" 
d="M170 0h-162q19 30 34 76q5 14 18.5 55.5t20.5 60t22 45.5t33 44q19 19 56 35v3q-61 11 -101.5 53t-40.5 111q0 90 70 143q69 53 220 53q108 0 194 -14v-665h-151v265h-37q-44 0 -72 -26q-15 -14 -28 -39t-20.5 -46t-17 -52.5t-14.5 -44.5q-14 -39 -24 -57zM383 377v183
q-33 6 -62 6q-53 0 -86 -24t-33 -73q0 -45 36 -70t90 -25q34 0 55 3z" />
    <glyph glyph-name="uni0430" unicode="&#x430;" horiz-adv-x="528" 
d="M476 0h-137l-9 49h-3q-49 -60 -140 -60q-71 0 -114.5 44.5t-43.5 105.5q0 93 76.5 140.5t210.5 46.5v7q0 63 -89 63q-76 0 -135 -37l-28 98q77 43 190 43q114 0 164.5 -58t50.5 -153v-170q0 -81 7 -119zM321 178v53q-142 2 -142 -77q0 -28 16.5 -43t43.5 -15
q28 0 49.5 16t29.5 40q3 12 3 26z" />
    <glyph glyph-name="uni0431" unicode="&#x431;" horiz-adv-x="577" 
d="M492 720l-8 -120q-38 -11 -116 -17q-108 -12 -154 -65q-21 -22 -35.5 -56t-17.5 -65h5q23 42 65.5 67t95.5 25q99 0 158 -66.5t59 -176.5q0 -117 -70 -187t-181 -70q-124 0 -190 89t-66 234q0 198 105 297q71 75 204 90q113 12 146 21zM388 240q0 58 -24 101t-75 43
q-45 0 -71 -40q-26 -38 -26 -97q0 -57 25 -103t74 -46q50 0 73.5 41.5t23.5 100.5z" />
    <glyph glyph-name="uni0432" unicode="&#x432;" horiz-adv-x="552" 
d="M60 2v482q89 12 197 12q242 0 242 -125q0 -44 -29 -71t-71 -35v-2q56 -9 88.5 -40t32.5 -79q0 -151 -289 -151q-101 0 -171 9zM210 399v-101h39q100 0 100 53q0 52 -87 52q-18 0 -52 -4zM209 210v-123q16 -2 51 -2q104 0 104 63q0 62 -111 62h-44z" />
    <glyph glyph-name="uni0433" unicode="&#x433;" horiz-adv-x="416" 
d="M60 489h342v-118h-190v-371h-152v489z" />
    <glyph glyph-name="uni0434" unicode="&#x434;" horiz-adv-x="590" 
d="M126 489h390v-382l54 -2l-7 -263h-114l-5 158h-309l-6 -158h-115l-4 262l45 3q32 48 49 102q22 80 22 160v120zM258 378v-57q0 -58 -18 -127q-11 -45 -34 -83h162v267h-110z" />
    <glyph glyph-name="uni0435" unicode="&#x435;" horiz-adv-x="528" 
d="M493 196h-315q4 -45 42.5 -69t95.5 -24q72 0 135 20l20 -103q-75 -30 -177 -30q-123 0 -192 66.5t-69 182.5q0 65 25 122.5t83 98t139 40.5q110 0 164 -71t54 -173q0 -32 -5 -60zM177 300h180q0 37 -19.5 68t-66.5 31q-43 0 -66.5 -30.5t-27.5 -68.5z" />
    <glyph glyph-name="uni0436" unicode="&#x436;" horiz-adv-x="737" 
d="M1 489h168l110 -196h16v196h147v-196h15l111 196h168l-170 -211q75 -14 114 -124q50 -138 58 -154h-152q-12 21 -42 112q-29 83 -90 83h-12v-195h-147v195h-12q-62 0 -92 -83q-34 -95 -43 -112h-150q13 26 60 153q40 112 113 125z" />
    <glyph glyph-name="uni0437" unicode="&#x437;" horiz-adv-x="487" 
d="M110 205v93h72q45 0 68.5 13.5t23.5 35.5q0 21 -22 34.5t-61 13.5q-62 0 -123 -35l-30 89q83 50 199 50q79 0 138.5 -31.5t59.5 -99.5q0 -44 -31.5 -71t-74.5 -37v-4q52 -6 89.5 -35t37.5 -80q0 -42 -23 -73t-61.5 -47t-77.5 -23t-81 -7q-111 0 -190 47l32 94
q59 -32 140 -34q46 0 70 14.5t24 37.5q0 55 -106 55h-73z" />
    <glyph glyph-name="uni0438" unicode="&#x438;" horiz-adv-x="597" 
d="M60 489h144v-150q0 -67 -8 -199l4 -1q10 23 27.5 69t28.5 71l95 210h186v-489h-144v149q0 25 9 212h-4q-27 -77 -51 -132l-102 -229h-185v489z" />
    <glyph glyph-name="uni0439" unicode="&#x439;" horiz-adv-x="597" 
d="M60 489h144v-150q0 -67 -8 -199l4 -1q10 23 27.5 69t28.5 71l95 210h186v-489h-144v149q0 25 9 212h-4q-27 -77 -51 -132l-102 -229h-185v489zM154 691h97q2 -71 46 -71t49 71h96q-4 -69 -43 -105t-104 -36q-67 0 -102 37t-39 104z" />
    <glyph glyph-name="uni043A" unicode="&#x43a;" horiz-adv-x="530" 
d="M61 489h151v-195h17l123 195h178l-180 -210q74 -14 123 -135q48 -123 59 -144h-159q-11 18 -44 108q-34 86 -102 86h-15v-194h-151v489z" />
    <glyph glyph-name="uni043B" unicode="&#x43b;" horiz-adv-x="546" 
d="M87 489h399v-489h-152v373h-106v-90q0 -96 -15 -155.5t-54 -90.5q-44 -47 -142 -47l-16 117q38 7 54 27q20 20 26 54.5t6 102.5v198z" />
    <glyph glyph-name="uni043C" unicode="&#x43c;" horiz-adv-x="718" 
d="M44 0l34 489h194l53 -185q23 -83 32 -123h3q7 28 39 134l54 174h192l30 -489h-141l-8 196q0 14 -2 76l-3 95h-3l-47 -160l-65 -199h-111l-58 194q-9 34 -40 162h-4q-1 -22 -2.5 -85t-2.5 -86l-8 -193h-136z" />
    <glyph glyph-name="uni043D" unicode="&#x43d;" horiz-adv-x="579" 
d="M60 489h152v-177h154v177h153v-489h-153v194h-154v-194h-152v489z" />
    <glyph glyph-name="uni043E" unicode="&#x43e;" horiz-adv-x="577" 
d="M294 500q112 0 181 -69.5t69 -180.5q0 -126 -75.5 -193.5t-182.5 -67.5q-110 0 -181.5 68t-71.5 184q0 118 71.5 188.5t189.5 70.5zM290 392q-51 0 -75.5 -43t-24.5 -104q0 -65 26.5 -106t73.5 -41q44 0 70.5 40.5t26.5 106.5q0 61 -24.5 104t-72.5 43z" />
    <glyph glyph-name="uni043F" unicode="&#x43f;" horiz-adv-x="576" 
d="M60 489h455v-489h-153v373h-150v-373h-152v489z" />
    <glyph glyph-name="uni0440" unicode="&#x440;" horiz-adv-x="598" 
d="M61 -198v523q0 74 -4 164h132l7 -68h2q55 79 163 79q84 0 143.5 -68t59.5 -181q0 -125 -66 -193.5t-156 -68.5q-88 0 -127 56h-2v-243h-152zM213 277v-67q0 -18 3 -32q8 -31 32.5 -51.5t56.5 -20.5q49 0 77 37.5t28 100.5q0 61 -27 99t-76 38q-32 0 -58 -21.5t-33 -55.5
q-3 -12 -3 -27z" />
    <glyph glyph-name="uni0441" unicode="&#x441;" horiz-adv-x="451" 
d="M410 124l18 -112q-50 -22 -136 -22q-119 0 -189 67.5t-70 182.5q0 112 74 186t206 74q65 0 116 -19l-24 -113q-34 15 -85 15q-60 0 -96 -38.5t-35 -98.5q0 -65 38 -101t96 -36q49 0 87 15z" />
    <glyph glyph-name="uni0442" unicode="&#x442;" horiz-adv-x="461" 
d="M12 489h437v-116h-142v-373h-153v373h-142v116z" />
    <glyph glyph-name="uni0443" unicode="&#x443;" horiz-adv-x="523" 
d="M6 489h169l73 -240q18 -67 24 -91h3q4 15 11.5 48t10.5 43l60 240h163l-114 -322q-50 -140 -89.5 -211t-82.5 -110q-65 -56 -147 -67l-32 129q31 5 66 26q38 20 63 61q8 11 8 22t-7 25z" />
    <glyph glyph-name="uni0444" unicode="&#x444;" horiz-adv-x="720" 
d="M291 710h138v-213q112 -11 185 -76.5t73 -177.5q0 -113 -74 -178t-184 -73v-190h-138v189q-110 9 -184 74t-74 176q0 114 73 179.5t185 76.5v213zM291 91v308q-54 -13 -81 -54t-27 -100q0 -61 27 -101.5t81 -52.5zM429 398v-307q53 12 80.5 53t27.5 101q0 59 -27.5 99.5
t-80.5 53.5z" />
    <glyph glyph-name="uni0445" unicode="&#x445;" horiz-adv-x="519" 
d="M7 489h170l48 -81l40 -73h2l38 75l43 79h165l-161 -233l163 -256h-172l-49 88q-14 24 -38 74h-3q-5 -12 -11.5 -24.5l-14 -27l-11.5 -22.5l-46 -88h-167l166 249z" />
    <glyph glyph-name="uni0446" unicode="&#x446;" horiz-adv-x="589" 
d="M60 489h152v-373h152v373h152v-382l54 -2l-7 -263h-114l-5 158h-384v489z" />
    <glyph glyph-name="uni0447" unicode="&#x447;" horiz-adv-x="558" 
d="M55 489h152v-148q0 -82 73 -82q39 0 66 21v209h152v-489h-152v182h-2q-49 -31 -123 -31q-80 0 -123 45t-43 131v162z" />
    <glyph glyph-name="uni0448" unicode="&#x448;" horiz-adv-x="813" 
d="M60 489h151v-373h120v373h151v-373h120v373h151v-489h-693v489z" />
    <glyph glyph-name="uni0449" unicode="&#x449;" horiz-adv-x="826" 
d="M60 489h151v-373h120v373h151v-373h120v373h151v-382l54 -2l-7 -263h-114l-5 158h-621v489z" />
    <glyph glyph-name="uni044A" unicode="&#x44a;" horiz-adv-x="650" 
d="M19 489h291v-144q35 5 80 5q44 0 83 -9.5t72.5 -29t53.5 -54.5t20 -82q0 -80 -67 -127q-79 -54 -231 -54q-87 0 -164 9v371h-138v115zM309 242v-142q39 -3 51 -3q45 0 76.5 17.5t31.5 55.5q0 29 -19 47.5t-42.5 24t-51.5 5.5q-11 0 -46 -5z" />
    <glyph glyph-name="uni044B" unicode="&#x44b;" horiz-adv-x="777" 
d="M60 489h152v-145q40 6 79 6q91 0 155.5 -42t64.5 -129q0 -85 -67 -130q-79 -55 -221 -55q-87 0 -163 9v486zM211 242v-143q28 -2 46 -2q43 0 73 18.5t30 58.5q0 38 -28.5 55.5t-67.5 17.5q-18 0 -53 -5zM565 489h152v-489h-152v489z" />
    <glyph glyph-name="uni044C" unicode="&#x44c;" horiz-adv-x="554" 
d="M60 489h152v-145q42 6 77 6q46 0 85.5 -8.5t74 -27.5t54.5 -53t20 -81q0 -86 -67 -131q-79 -55 -233 -55q-87 0 -163 9v486zM211 242v-142q42 -3 51 -3q45 0 77.5 18t32.5 58t-34 57t-78 17q-12 0 -49 -5z" />
    <glyph glyph-name="uni044D" unicode="&#x44d;" horiz-adv-x="485" 
d="M83 198v96h214q-17 95 -131 95q-57 0 -109 -22l-28 97q69 36 164 36q112 0 178 -59q81 -73 81 -195q0 -117 -75.5 -187t-204.5 -70q-86 0 -150 33l23 103q47 -20 112 -20q54 0 90.5 24.5t46.5 68.5h-211z" />
    <glyph glyph-name="uni044E" unicode="&#x44e;" horiz-adv-x="771" 
d="M60 489h151v-182h64q17 89 78.5 141t152.5 52q103 0 167.5 -69.5t64.5 -180.5q0 -124 -69.5 -192.5t-169.5 -68.5q-90 0 -152.5 55.5t-74.5 151.5h-61v-196h-151v489zM501 97q42 0 63.5 41.5t21.5 107.5q0 61 -21 103.5t-63 42.5q-43 0 -65 -43t-22 -105q0 -64 22 -105.5
t64 -41.5z" />
    <glyph glyph-name="uni044F" unicode="&#x44f;" horiz-adv-x="553" 
d="M493 486v-486h-150v184h-31q-44 0 -70 -35q-9 -9 -17.5 -23.5t-13 -25.5t-12 -31.5l-10.5 -28.5q-6 -14 -19 -40h-162q13 16 30 54q1 3 9.5 24.5t13 31.5t13 27.5t16.5 30t17 21.5q26 28 62 36v3q-48 5 -87 36t-39 85q0 80 83 119q59 29 180 29q108 0 187 -11zM343 277
v122q-26 4 -52 4q-40 0 -65.5 -16t-25.5 -47q0 -30 28 -47t65 -17q13 0 29 0.5t21 0.5z" />
    <glyph glyph-name="uni0451" unicode="&#x451;" horiz-adv-x="528" 
d="M493 196h-315q4 -45 42.5 -69t95.5 -24q72 0 135 20l20 -103q-75 -30 -177 -30q-123 0 -192 66.5t-69 182.5q0 65 25 122.5t83 98t139 40.5q110 0 164 -71t54 -173q0 -32 -5 -60zM177 300h180q0 37 -19.5 68t-66.5 31q-43 0 -66.5 -30.5t-27.5 -68.5zM176 557
q-30 0 -51 20.5t-21 49.5q0 30 21 50.5t51 20.5q29 0 48.5 -20t19.5 -51q0 -29 -19.5 -49.5t-48.5 -20.5zM386 557q-30 0 -50.5 20.5t-20.5 49.5q0 31 20.5 51t50.5 20q29 0 49 -20t20 -51q0 -29 -19.5 -49.5t-49.5 -20.5z" />
    <glyph glyph-name="uni0452" unicode="&#x452;" horiz-adv-x="586" 
d="M1 642h73v68h152v-68h211v-100h-211v-108h2q55 53 128 53q95 0 147 -89q47 -74 47 -198q0 -229 -126 -307q-62 -39 -116 -42l-28 121q44 9 71 37q21 23 33.5 71.5t12.5 107.5q0 85 -25 132q-24 44 -66 44q-41 0 -68 -33q-12 -17 -12 -40v-291h-152v542h-73v100z" />
    <glyph glyph-name="uni0453" unicode="&#x453;" horiz-adv-x="416" 
d="M60 489h342v-118h-190v-371h-152v489zM239 702h141l-122 -152h-104z" />
    <glyph glyph-name="uni0454" unicode="&#x454;" horiz-adv-x="472" 
d="M450 474l-27 -105q-44 21 -99 21t-90 -26t-43 -70h203v-96h-200q9 -46 45 -70.5t91 -24.5q50 0 99 19l22 -105q-56 -28 -147 -28q-125 0 -198 68t-73 183q0 122 82 191t206 69q82 0 129 -26z" />
    <glyph glyph-name="uni0455" unicode="&#x455;" horiz-adv-x="434" 
d="M33 24l27 109q23 -14 61 -25.5t70 -11.5q65 0 65 41q0 19 -14.5 30.5t-57.5 25.5q-141 47 -139 147q0 69 55 114.5t144 45.5q82 0 138 -28l-27 -105q-51 28 -106 28q-58 0 -58 -40q0 -17 16.5 -28.5t62.5 -27.5q69 -24 100.5 -60t32.5 -91q0 -71 -55 -114.5t-157 -43.5
q-95 0 -158 34z" />
    <glyph glyph-name="uni0456" unicode="&#x456;" horiz-adv-x="274" 
d="M213 0h-152v489h152v-489zM137 702q36 0 58 -21.5t23 -55.5q0 -32 -22.5 -54t-59.5 -22q-35 0 -57.5 22t-21.5 54q-1 33 21.5 55t58.5 22z" />
    <glyph glyph-name="uni0457" unicode="&#x457;" horiz-adv-x="274" 
d="M213 0h-152v489h152v-489zM33 557q-30 0 -51 20.5t-21 49.5q0 30 21 50.5t51 20.5q29 0 48.5 -20t19.5 -51q0 -29 -19.5 -49.5t-48.5 -20.5zM243 557q-30 0 -50.5 20.5t-20.5 49.5q0 31 20.5 51t50.5 20q29 0 49 -20t20 -51q0 -29 -19.5 -49.5t-49.5 -20.5z" />
    <glyph glyph-name="uni0458" unicode="&#x458;" horiz-adv-x="291" 
d="M-25 -209l-15 119q64 5 90 32q30 31 30 159v388h153v-424q0 -150 -69 -214q-64 -60 -189 -60zM157 702q36 0 57.5 -21.5t22.5 -55.5q0 -32 -22.5 -54t-59.5 -22q-35 0 -57 22t-22 54q0 34 22 55.5t59 21.5z" />
    <glyph glyph-name="uni0459" unicode="&#x459;" horiz-adv-x="824" 
d="M89 489h397v-148q42 6 76 6q96 0 163.5 -42.5t67.5 -131.5q0 -79 -61 -123q-74 -56 -232 -56q-90 0 -166 9v370h-105v-89q0 -189 -70 -246q-45 -48 -142 -48l-16 118q35 6 54 25q21 19 27.5 56t6.5 102v198zM485 241v-142q28 -2 50 -2q43 0 75 17t32 57q0 39 -30.5 56.5
t-71.5 17.5q-23 0 -55 -4z" />
    <glyph glyph-name="uni045A" unicode="&#x45a;" horiz-adv-x="840" 
d="M60 489h152v-165h138v165h153v-149q40 6 77 6q94 0 161 -43t67 -131q0 -76 -61 -123q-75 -55 -231 -55q-90 0 -166 9v209h-138v-212h-152v489zM502 240v-140q39 -3 50 -3q43 0 74 17.5t31 55.5q0 40 -30.5 57t-73.5 17q-21 0 -51 -4z" />
    <glyph glyph-name="uni045B" unicode="&#x45b;" horiz-adv-x="598" 
d="M1 642h73v68h152v-68h199v-100h-199v-124h2q26 32 59 49q38 20 80 20q81 0 126 -55.5t45 -157.5v-274h-152v255q0 109 -79 109q-54 0 -76 -54q-5 -11 -5 -34v-276h-152v542h-73v100z" />
    <glyph glyph-name="uni045C" unicode="&#x45c;" horiz-adv-x="530" 
d="M61 489h151v-195h17l123 195h178l-180 -210q74 -14 123 -135q48 -123 59 -144h-159q-11 18 -44 108q-34 86 -102 86h-15v-194h-151v489zM281 702h140l-122 -152h-104z" />
    <glyph glyph-name="uni045E" unicode="&#x45e;" horiz-adv-x="523" 
d="M118 691h96q2 -71 46 -71t49 71h96q-4 -69 -43 -105t-104 -36q-67 0 -102 37t-38 104zM6 489h169l73 -240q18 -67 24 -91h3q4 15 11.5 48t10.5 43l60 240h163l-114 -322q-50 -140 -89.5 -211t-82.5 -110q-65 -56 -147 -67l-32 129q31 5 66 26q38 20 63 61q8 11 8 22
t-7 25z" />
    <glyph glyph-name="uni045F" unicode="&#x45f;" horiz-adv-x="576" 
d="M60 489h153v-373h150v373h153v-489h-159l-9 -165h-121l-9 165h-158v489z" />
    <glyph glyph-name="uni0490" unicode="&#x490;" horiz-adv-x="492" 
d="M66 674h294l16 130h109l-12 -255h-254v-549h-153v674z" />
    <glyph glyph-name="uni0491" unicode="&#x491;" horiz-adv-x="431" 
d="M60 489h234l14 119h106l-9 -237h-193v-371h-152v489z" />
    <glyph glyph-name="uni04D9" unicode="&#x4d9;" horiz-adv-x="528" 
d="M76 364l-20 102q80 34 180 34q121 0 189.5 -67t68.5 -182q0 -104 -63.5 -182.5t-180.5 -78.5q-112 0 -166.5 71t-54.5 173q0 37 6 59h314q-3 47 -38.5 70.5t-95.5 23.5q-71 0 -139 -23zM350 189h-180q0 -35 21 -66.5t67 -31.5q44 0 66 30t26 68z" />
    <glyph glyph-name="Wgrave" unicode="&#x1e80;" horiz-adv-x="888" 
d="M342 0h-167l-160 674h163l51 -278q14 -77 40 -235h2q13 84 44 237l57 276h162l54 -284q20 -104 36 -226h2q6 47 39 234l55 276h155l-174 -674h-165l-57 290q-23 119 -32 208h-2q-20 -128 -39 -208zM274 833h160l84 -121h-122z" />
    <glyph glyph-name="wgrave" unicode="&#x1e81;" horiz-adv-x="759" 
d="M11 489h155l39 -200q18 -94 28 -161h2q10 56 36 160l52 201h120l49 -195q26 -110 36 -166h2q8 67 28 167l42 194h149l-150 -489h-143l-46 172q-17 68 -31 152h-2q-12 -81 -32 -152l-49 -172h-143zM228 702h141l86 -152h-104z" />
    <glyph glyph-name="Wacute" unicode="&#x1e82;" horiz-adv-x="888" 
d="M342 0h-167l-160 674h163l51 -278q14 -77 40 -235h2q13 84 44 237l57 276h162l54 -284q20 -104 36 -226h2q6 47 39 234l55 276h155l-174 -674h-165l-57 290q-23 119 -32 208h-2q-20 -128 -39 -208zM468 833h160l-122 -123h-122z" />
    <glyph glyph-name="wacute" unicode="&#x1e83;" horiz-adv-x="759" 
d="M11 489h155l39 -200q18 -94 28 -161h2q10 56 36 160l52 201h120l49 -195q26 -110 36 -166h2q8 67 28 167l42 194h149l-150 -489h-143l-46 172q-17 68 -31 152h-2q-12 -81 -32 -152l-49 -172h-143zM397 702h141l-122 -152h-105z" />
    <glyph glyph-name="Wdieresis" unicode="&#x1e84;" horiz-adv-x="888" 
d="M342 0h-167l-160 674h163l51 -278q14 -77 40 -235h2q13 84 44 237l57 276h162l54 -284q20 -104 36 -226h2q6 47 39 234l55 276h155l-174 -674h-165l-57 290q-23 119 -32 208h-2q-20 -128 -39 -208zM351 713q-30 0 -50 20t-20 48q0 29 20.5 49t49.5 20q28 0 47 -20t19 -49
q0 -28 -19 -48t-47 -20zM558 713q-29 0 -48.5 20t-19.5 48q0 29 19.5 49t48.5 20q28 0 47.5 -20t19.5 -49q0 -28 -19.5 -48t-47.5 -20z" />
    <glyph glyph-name="wdieresis" unicode="&#x1e85;" horiz-adv-x="759" 
d="M11 489h155l39 -200q18 -94 28 -161h2q10 56 36 160l52 201h120l49 -195q26 -110 36 -166h2q8 67 28 167l42 194h149l-150 -489h-143l-46 172q-17 68 -31 152h-2q-12 -81 -32 -152l-49 -172h-143zM275 557q-30 0 -51 20.5t-21 49.5q0 30 21 50.5t51 20.5q29 0 48.5 -20
t19.5 -51q0 -29 -19.5 -49.5t-48.5 -20.5zM485 557q-30 0 -50.5 20.5t-20.5 49.5q0 31 20.5 51t50.5 20q29 0 49 -20t20 -51q0 -29 -19.5 -49.5t-49.5 -20.5z" />
    <glyph glyph-name="uni1EA0" unicode="&#x1ea0;" horiz-adv-x="656" 
d="M416 173h-193l-48 -173h-158l206 674h200l209 -674h-164zM245 287h149l-42 143q-9 30 -34 130h-2l-14 -60.5t-17 -69.5zM322 -80q29 0 48.5 -20t19.5 -51q0 -29 -19.5 -49.5t-49.5 -20.5t-50.5 20.5t-20.5 49.5q0 31 20.5 51t51.5 20z" />
    <glyph glyph-name="uni1EA1" unicode="&#x1ea1;" horiz-adv-x="528" 
d="M476 0h-137l-9 49h-3q-49 -60 -140 -60q-71 0 -114.5 44.5t-43.5 105.5q0 93 76.5 140.5t210.5 46.5v7q0 63 -89 63q-76 0 -135 -37l-28 98q77 43 190 43q114 0 164.5 -58t50.5 -153v-170q0 -81 7 -119zM321 178v53q-142 2 -142 -77q0 -28 16.5 -43t43.5 -15
q28 0 49.5 16t29.5 40q3 12 3 26zM266 -80q29 0 48 -20t19 -51q0 -29 -19.5 -49.5t-49.5 -20.5t-50 20.5t-20 49.5q0 31 20.5 51t51.5 20z" />
    <glyph glyph-name="uni1EA2" unicode="&#x1ea2;" horiz-adv-x="656" 
d="M416 173h-193l-48 -173h-158l206 674h200l209 -674h-164zM245 287h149l-42 143q-9 30 -34 130h-2l-14 -60.5t-17 -69.5zM363 706l-70 15q7 21 28 45t21 41q0 13 -8.5 21.5t-20.5 8.5q-23 0 -45 -34l-48 29q40 79 122 79q40 0 68.5 -25t28.5 -60q0 -26 -12.5 -44
t-33 -37.5t-30.5 -38.5z" />
    <glyph glyph-name="uni1EA3" unicode="&#x1ea3;" horiz-adv-x="528" 
d="M476 0h-137l-9 49h-3q-49 -60 -140 -60q-71 0 -114.5 44.5t-43.5 105.5q0 93 76.5 140.5t210.5 46.5v7q0 63 -89 63q-76 0 -135 -37l-28 98q77 43 190 43q114 0 164.5 -58t50.5 -153v-170q0 -81 7 -119zM321 178v53q-142 2 -142 -77q0 -28 16.5 -43t43.5 -15
q28 0 49.5 16t29.5 40q3 12 3 26zM291 527l-73 16q6 23 30 51t24 47q0 15 -9 24t-21 9q-23 0 -43 -34l-50 30q39 79 121 79q42 0 71 -24.5t29 -62.5t-36.5 -79.5t-42.5 -55.5z" />
    <glyph glyph-name="uni1EA4" unicode="&#x1ea4;" horiz-adv-x="656" 
d="M416 173h-193l-48 -173h-158l206 674h200l209 -674h-164zM245 287h149l-42 143q-9 30 -34 130h-2l-14 -60.5t-17 -69.5zM276 833h106l90 -123h-98l-44 63h-2l-45 -63h-97zM497 915h131l-134 -114h-73z" />
    <glyph glyph-name="uni1EA5" unicode="&#x1ea5;" horiz-adv-x="528" 
d="M476 0h-137l-9 49h-3q-49 -60 -140 -60q-71 0 -114.5 44.5t-43.5 105.5q0 93 76.5 140.5t210.5 46.5v7q0 63 -89 63q-76 0 -135 -37l-28 98q77 43 190 43q114 0 164.5 -58t50.5 -153v-170q0 -81 7 -119zM321 178v53q-142 2 -142 -77q0 -28 16.5 -43t43.5 -15
q28 0 49.5 16t29.5 40q3 12 3 26zM206 702h106l89 -152h-97l-44 87h-2l-45 -87h-97zM440 798h116l-115 -150h-77z" />
    <glyph glyph-name="uni1EA6" unicode="&#x1ea6;" horiz-adv-x="656" 
d="M416 173h-193l-48 -173h-158l206 674h200l209 -674h-164zM245 287h149l-42 143q-9 30 -34 130h-2l-14 -60.5t-17 -69.5zM355 901h131l65 -113h-79zM270 833h106l90 -123h-98l-44 63h-2l-45 -63h-97z" />
    <glyph glyph-name="uni1EA7" unicode="&#x1ea7;" horiz-adv-x="528" 
d="M476 0h-137l-9 49h-3q-49 -60 -140 -60q-71 0 -114.5 44.5t-43.5 105.5q0 93 76.5 140.5t210.5 46.5v7q0 63 -89 63q-76 0 -135 -37l-28 98q77 43 190 43q114 0 164.5 -58t50.5 -153v-170q0 -81 7 -119zM321 178v53q-142 2 -142 -77q0 -28 16.5 -43t43.5 -15
q28 0 49.5 16t29.5 40q3 12 3 26zM301 799h115l68 -151h-76zM208 702h106l89 -152h-97l-44 87h-3l-44 -87h-97z" />
    <glyph glyph-name="uni1EA8" unicode="&#x1ea8;" horiz-adv-x="656" 
d="M416 173h-193l-48 -173h-158l206 674h200l209 -674h-164zM245 287h149l-42 143q-9 30 -34 130h-2l-14 -60.5t-17 -69.5zM271 833h106l90 -123h-98l-44 63h-2l-45 -63h-97zM509 758l-59 14q7 20 28.5 43.5t21.5 39.5q0 13 -9 21.5t-21 8.5q-26 0 -46 -36l-45 27
q38 73 112 73q39 0 64.5 -22.5t25.5 -56.5q0 -30 -31.5 -62.5t-40.5 -49.5z" />
    <glyph glyph-name="uni1EA9" unicode="&#x1ea9;" horiz-adv-x="528" 
d="M476 0h-137l-9 49h-3q-49 -60 -140 -60q-71 0 -114.5 44.5t-43.5 105.5q0 93 76.5 140.5t210.5 46.5v7q0 63 -89 63q-76 0 -135 -37l-28 98q77 43 190 43q114 0 164.5 -58t50.5 -153v-170q0 -81 7 -119zM321 178v53q-142 2 -142 -77q0 -28 16.5 -43t43.5 -15
q28 0 49.5 16t29.5 40q3 12 3 26zM206 702h106l90 -152h-97l-45 87h-2l-44 -87h-97zM442 633l-64 14q7 20 27 42.5t20 37.5q0 13 -8.5 21t-19.5 8q-22 0 -43 -33l-44 28q38 73 113 73q38 0 64 -23.5t26 -55.5q0 -33 -32 -66t-39 -46z" />
    <glyph glyph-name="uni1EAA" unicode="&#x1eaa;" horiz-adv-x="656" 
d="M416 173h-193l-48 -173h-158l206 674h200l209 -674h-164zM245 287h149l-42 143q-9 30 -34 130h-2l-14 -60.5t-17 -69.5zM268 833h114l101 -123h-107l-50 62h-2l-50 -62h-106zM258 849h-71q-1 52 21 82.5t61 30.5q29 0 64 -20q34 -17 43 -17q12 0 18 8.5t8 31.5h70
q4 -115 -82 -115q-26 0 -68 22q-26 14 -39 14q-22 0 -25 -37z" />
    <glyph glyph-name="uni1EAB" unicode="&#x1eab;" horiz-adv-x="528" 
d="M476 0h-137l-9 49h-3q-49 -60 -140 -60q-71 0 -114.5 44.5t-43.5 105.5q0 93 76.5 140.5t210.5 46.5v7q0 63 -89 63q-76 0 -135 -37l-28 98q77 43 190 43q114 0 164.5 -58t50.5 -153v-170q0 -81 7 -119zM321 178v53q-142 2 -142 -77q0 -28 16.5 -43t43.5 -15
q28 0 49.5 16t29.5 40q3 12 3 26zM211 680h106l95 -130h-99l-48 71h-2l-48 -71h-99zM197 697h-71q-1 52 21 82.5t60 30.5q29 0 65 -20q32 -16 43 -16q12 0 18 8t8 31h70q4 -115 -82 -115q-26 0 -68 22q-28 14 -39 14q-22 0 -25 -37z" />
    <glyph glyph-name="uni1EAC" unicode="&#x1eac;" horiz-adv-x="656" 
d="M416 173h-193l-48 -173h-158l206 674h200l209 -674h-164zM245 287h149l-42 143q-9 30 -34 130h-2l-14 -60.5t-17 -69.5zM269 833h114l102 -123h-108l-50 62h-2l-50 -62h-106zM319 -217q-29 0 -49.5 20.5t-20.5 47.5q0 29 20 49t50 20q28 0 47.5 -20t19.5 -49
q0 -27 -19.5 -47.5t-47.5 -20.5z" />
    <glyph glyph-name="uni1EAD" unicode="&#x1ead;" horiz-adv-x="528" 
d="M476 0h-137l-9 49h-3q-49 -60 -140 -60q-71 0 -114.5 44.5t-43.5 105.5q0 93 76.5 140.5t210.5 46.5v7q0 63 -89 63q-76 0 -135 -37l-28 98q77 43 190 43q114 0 164.5 -58t50.5 -153v-170q0 -81 7 -119zM321 178v53q-142 2 -142 -77q0 -28 16.5 -43t43.5 -15
q28 0 49.5 16t29.5 40q3 12 3 26zM213 702h102l99 -152h-99l-50 87h-2l-50 -87h-100zM266 -80q29 0 48 -20t19 -51q0 -29 -19.5 -49.5t-49.5 -20.5t-50 20.5t-20 49.5q0 31 20.5 51t51.5 20z" />
    <glyph glyph-name="uni1EAE" unicode="&#x1eae;" horiz-adv-x="656" 
d="M416 173h-193l-48 -173h-158l206 674h200l209 -674h-164zM245 287h149l-42 143q-9 30 -34 130h-2l-14 -60.5t-17 -69.5zM183 821h69q13 -47 74 -47q62 0 75 47h67q-6 -52 -43.5 -87.5t-100.5 -35.5q-64 0 -99.5 34t-41.5 89zM345 924h135l-124 -113h-81z" />
    <glyph glyph-name="uni1EAF" unicode="&#x1eaf;" horiz-adv-x="528" 
d="M476 0h-137l-9 49h-3q-49 -60 -140 -60q-71 0 -114.5 44.5t-43.5 105.5q0 93 76.5 140.5t210.5 46.5v7q0 63 -89 63q-76 0 -135 -37l-28 98q77 43 190 43q114 0 164.5 -58t50.5 -153v-170q0 -81 7 -119zM321 178v53q-142 2 -142 -77q0 -28 16.5 -43t43.5 -15
q28 0 49.5 16t29.5 40q3 12 3 26zM291 809h117l-124 -147h-79zM102 671h72q5 -27 26 -43.5t54 -16.5q35 0 56 17.5t23 42.5h73q-2 -63 -44 -101.5t-109 -38.5q-68 0 -108.5 39t-42.5 101z" />
    <glyph glyph-name="uni1EB0" unicode="&#x1eb0;" horiz-adv-x="656" 
d="M416 173h-193l-48 -173h-158l206 674h200l209 -674h-164zM245 287h149l-42 143q-9 30 -34 130h-2l-14 -60.5t-17 -69.5zM180 924h135l69 -113h-81zM188 821h69q13 -47 74 -47q62 0 75 47h67q-6 -52 -43.5 -87.5t-100.5 -35.5q-64 0 -99.5 34t-41.5 89z" />
    <glyph glyph-name="uni1EB1" unicode="&#x1eb1;" horiz-adv-x="528" 
d="M476 0h-137l-9 49h-3q-49 -60 -140 -60q-71 0 -114.5 44.5t-43.5 105.5q0 93 76.5 140.5t210.5 46.5v7q0 63 -89 63q-76 0 -135 -37l-28 98q77 43 190 43q114 0 164.5 -58t50.5 -153v-170q0 -81 7 -119zM321 178v53q-142 2 -142 -77q0 -28 16.5 -43t43.5 -15
q28 0 49.5 16t29.5 40q3 12 3 26zM111 809h117l86 -147h-80zM111 671h73q4 -27 25 -43.5t54 -16.5q36 0 57 17t23 43h72q-2 -63 -43.5 -101.5t-109.5 -38.5t-108.5 39t-42.5 101z" />
    <glyph glyph-name="uni1EB2" unicode="&#x1eb2;" horiz-adv-x="656" 
d="M416 173h-193l-48 -173h-158l206 674h200l209 -674h-164zM245 287h149l-42 143q-9 30 -34 130h-2l-14 -60.5t-17 -69.5zM354 798l-63 14q7 20 27 42.5t20 37.5q0 13 -8 21t-20 8q-23 0 -43 -33l-44 27q38 74 113 74q38 0 64 -23.5t26 -54.5q0 -25 -12 -42t-31.5 -35
t-28.5 -36zM189 821h69q13 -47 74 -47q62 0 75 47h67q-6 -52 -43.5 -87.5t-100.5 -35.5q-64 0 -99.5 34t-41.5 89z" />
    <glyph glyph-name="uni1EB3" unicode="&#x1eb3;" horiz-adv-x="528" 
d="M476 0h-137l-9 49h-3q-49 -60 -140 -60q-71 0 -114.5 44.5t-43.5 105.5q0 93 76.5 140.5t210.5 46.5v7q0 63 -89 63q-76 0 -135 -37l-28 98q77 43 190 43q114 0 164.5 -58t50.5 -153v-170q0 -81 7 -119zM321 178v53q-142 2 -142 -77q0 -28 16.5 -43t43.5 -15
q28 0 49.5 16t29.5 40q3 12 3 26zM284 650l-64 14q7 20 26.5 42.5t19.5 37.5q0 12 -8 20.5t-20 8.5q-23 0 -42 -33l-45 28q38 73 113 73q38 0 64.5 -23.5t26.5 -55.5q0 -24 -12 -41t-31 -35t-28 -36zM109 671h72q5 -27 26 -43.5t53 -16.5q36 0 57 17t23 43h72
q-2 -63 -43.5 -101.5t-108.5 -38.5q-68 0 -108.5 39t-42.5 101z" />
    <glyph glyph-name="uni1EB4" unicode="&#x1eb4;" horiz-adv-x="656" 
d="M416 173h-193l-48 -173h-158l206 674h200l209 -674h-164zM245 287h149l-42 143q-9 30 -34 130h-2l-14 -60.5t-17 -69.5zM257 850h-72q0 48 21.5 77t59.5 29q27 0 65 -19q30 -17 43 -17q12 0 18 8.5t8 31.5h70q4 -116 -82 -116q-22 0 -68 22q-28 14 -39 14q-20 0 -24 -30z
M182 821h69q13 -47 74 -47q62 0 75 47h67q-6 -52 -43.5 -87.5t-100.5 -35.5q-64 0 -99.5 34t-41.5 89z" />
    <glyph glyph-name="uni1EB5" unicode="&#x1eb5;" horiz-adv-x="528" 
d="M476 0h-137l-9 49h-3q-49 -60 -140 -60q-71 0 -114.5 44.5t-43.5 105.5q0 93 76.5 140.5t210.5 46.5v7q0 63 -89 63q-76 0 -135 -37l-28 98q77 43 190 43q114 0 164.5 -58t50.5 -153v-170q0 -81 7 -119zM321 178v53q-142 2 -142 -77q0 -28 16.5 -43t43.5 -15
q28 0 49.5 16t29.5 40q3 12 3 26zM193 711h-72q-1 48 21 77.5t60 29.5q29 0 65 -20q30 -17 43 -17q12 0 18 8.5t8 31.5h69q4 -115 -81 -115q-26 0 -68 22q-28 14 -39 14q-20 0 -24 -31zM115 672h72q4 -28 23.5 -46t50.5 -18q33 0 53.5 19t22.5 45h71q-2 -64 -41 -102.5
t-106 -38.5q-68 0 -106 39t-40 102z" />
    <glyph glyph-name="uni1EB6" unicode="&#x1eb6;" horiz-adv-x="656" 
d="M416 173h-193l-48 -173h-158l206 674h200l209 -674h-164zM245 287h149l-42 143q-9 30 -34 130h-2l-14 -60.5t-17 -69.5zM183 848h81q6 -46 59 -46t63 46h78q-2 -58 -37 -92t-104 -34q-70 0 -104 34t-36 92zM320 -217q-29 0 -49.5 20.5t-20.5 47.5q0 29 20.5 49t50.5 20
q28 0 47 -20t19 -49q0 -27 -19.5 -47.5t-47.5 -20.5z" />
    <glyph glyph-name="uni1EB7" unicode="&#x1eb7;" horiz-adv-x="528" 
d="M476 0h-137l-9 49h-3q-49 -60 -140 -60q-71 0 -114.5 44.5t-43.5 105.5q0 93 76.5 140.5t210.5 46.5v7q0 63 -89 63q-76 0 -135 -37l-28 98q77 43 190 43q114 0 164.5 -58t50.5 -153v-170q0 -81 7 -119zM321 178v53q-142 2 -142 -77q0 -28 16.5 -43t43.5 -15
q28 0 49.5 16t29.5 40q3 12 3 26zM125 692h79q9 -61 59 -61q29 0 44 17.5t17 43.5h79q-1 -65 -37 -103.5t-103 -38.5t-102 39.5t-36 102.5zM266 -80q29 0 48 -20t19 -51q0 -29 -19.5 -49.5t-49.5 -20.5t-50 20.5t-20 49.5q0 31 20.5 51t51.5 20z" />
    <glyph glyph-name="uni1EB8" unicode="&#x1eb8;" horiz-adv-x="534" 
d="M467 409v-124h-248v-160h277v-125h-430v674h416v-125h-263v-140h248zM268 -217q-30 0 -50 20.5t-20 47.5q0 29 20.5 49t49.5 20q28 0 47.5 -20t19.5 -49q0 -27 -19.5 -47.5t-47.5 -20.5z" />
    <glyph glyph-name="uni1EB9" unicode="&#x1eb9;" horiz-adv-x="528" 
d="M493 196h-315q4 -45 42.5 -69t95.5 -24q72 0 135 20l20 -103q-75 -30 -177 -30q-123 0 -192 66.5t-69 182.5q0 65 25 122.5t83 98t139 40.5q110 0 164 -71t54 -173q0 -32 -5 -60zM177 300h180q0 37 -19.5 68t-66.5 31q-43 0 -66.5 -30.5t-27.5 -68.5zM265 -80
q29 0 48.5 -20t19.5 -51q0 -29 -19.5 -49.5t-49.5 -20.5t-50 20.5t-20 49.5q0 31 20.5 51t50.5 20z" />
    <glyph glyph-name="uni1EBA" unicode="&#x1eba;" horiz-adv-x="534" 
d="M467 409v-124h-248v-160h277v-125h-430v674h416v-125h-263v-140h248zM318 706l-70 15q7 21 28 45t21 41q0 13 -8.5 21.5t-20.5 8.5q-23 0 -45 -34l-48 29q39 79 122 79q40 0 68.5 -25t28.5 -60q0 -26 -12.5 -44t-33 -37.5t-30.5 -38.5z" />
    <glyph glyph-name="uni1EBB" unicode="&#x1ebb;" horiz-adv-x="528" 
d="M493 196h-315q4 -45 42.5 -69t95.5 -24q72 0 135 20l20 -103q-75 -30 -177 -30q-123 0 -192 66.5t-69 182.5q0 65 25 122.5t83 98t139 40.5q110 0 164 -71t54 -173q0 -32 -5 -60zM177 300h180q0 37 -19.5 68t-66.5 31q-43 0 -66.5 -30.5t-27.5 -68.5zM290 527l-73 16
q6 23 30 51t24 47q0 15 -8.5 24t-21.5 9q-23 0 -43 -34l-49 30q38 79 121 79q42 0 70.5 -24.5t28.5 -62.5t-36.5 -79.5t-42.5 -55.5z" />
    <glyph glyph-name="uni1EBC" unicode="&#x1ebc;" horiz-adv-x="534" 
d="M467 409v-124h-248v-160h277v-125h-430v674h416v-125h-263v-140h248zM215 715h-70q-1 62 19.5 94.5t57.5 32.5q31 0 64 -20q32 -19 44 -19q13 0 19 9.5t8 33.5h69q3 -125 -79 -125q-31 0 -65 19q-36 18 -43 18q-21 0 -24 -43z" />
    <glyph glyph-name="uni1EBD" unicode="&#x1ebd;" horiz-adv-x="528" 
d="M493 196h-315q4 -45 42.5 -69t95.5 -24q72 0 135 20l20 -103q-75 -30 -177 -30q-123 0 -192 66.5t-69 182.5q0 65 25 122.5t83 98t139 40.5q110 0 164 -71t54 -173q0 -32 -5 -60zM177 300h180q0 37 -19.5 68t-66.5 31q-43 0 -66.5 -30.5t-27.5 -68.5zM193 558h-72
q-2 62 20 96.5t62 34.5q25 0 65 -20q32 -20 42 -20q12 0 18 9.5t8 35.5h70q4 -129 -82 -129q-27 0 -69 22q-29 16 -38 16q-23 0 -24 -45z" />
    <glyph glyph-name="uni1EBE" unicode="&#x1ebe;" horiz-adv-x="534" 
d="M467 409v-124h-248v-160h277v-125h-430v674h416v-125h-263v-140h248zM224 833h106l91 -123h-99l-44 63h-2l-44 -63h-97zM446 915h131l-134 -114h-73z" />
    <glyph glyph-name="uni1EBF" unicode="&#x1ebf;" horiz-adv-x="528" 
d="M493 196h-315q4 -45 42.5 -69t95.5 -24q72 0 135 20l20 -103q-75 -30 -177 -30q-123 0 -192 66.5t-69 182.5q0 65 25 122.5t83 98t139 40.5q110 0 164 -71t54 -173q0 -32 -5 -60zM177 300h180q0 37 -19.5 68t-66.5 31q-43 0 -66.5 -30.5t-27.5 -68.5zM229 702h106
l89 -152h-97l-44 87h-2l-44 -87h-98zM463 798h117l-116 -150h-77z" />
    <glyph glyph-name="uni1EC0" unicode="&#x1ec0;" horiz-adv-x="534" 
d="M467 409v-124h-248v-160h277v-125h-430v674h416v-125h-263v-140h248zM308 901h131l65 -113h-79zM222 833h106l91 -123h-98l-45 63h-2l-44 -63h-97z" />
    <glyph glyph-name="uni1EC1" unicode="&#x1ec1;" horiz-adv-x="528" 
d="M493 196h-315q4 -45 42.5 -69t95.5 -24q72 0 135 20l20 -103q-75 -30 -177 -30q-123 0 -192 66.5t-69 182.5q0 65 25 122.5t83 98t139 40.5q110 0 164 -71t54 -173q0 -32 -5 -60zM177 300h180q0 37 -19.5 68t-66.5 31q-43 0 -66.5 -30.5t-27.5 -68.5zM319 799h114
l69 -151h-77zM225 702h106l89 -152h-97l-44 87h-2l-44 -87h-97z" />
    <glyph glyph-name="uni1EC2" unicode="&#x1ec2;" horiz-adv-x="534" 
d="M467 409v-124h-248v-160h277v-125h-430v674h416v-125h-263v-140h248zM225 833h106l91 -123h-99l-44 63h-2l-44 -63h-97zM464 758l-59 14q7 20 28 43.5t21 39.5q0 13 -8.5 21.5t-21.5 8.5q-24 0 -46 -36l-44 27q38 73 112 73q39 0 64.5 -22.5t25.5 -56.5
q0 -30 -31.5 -62.5t-40.5 -49.5z" />
    <glyph glyph-name="uni1EC3" unicode="&#x1ec3;" horiz-adv-x="528" 
d="M493 196h-315q4 -45 42.5 -69t95.5 -24q72 0 135 20l20 -103q-75 -30 -177 -30q-123 0 -192 66.5t-69 182.5q0 65 25 122.5t83 98t139 40.5q110 0 164 -71t54 -173q0 -32 -5 -60zM177 300h180q0 37 -19.5 68t-66.5 31q-43 0 -66.5 -30.5t-27.5 -68.5zM221 702h106
l89 -152h-97l-44 87h-2l-45 -87h-97zM457 633l-64 14q7 20 26.5 42.5t19.5 37.5q0 13 -8 21t-20 8q-23 0 -42 -33l-45 28q38 73 114 73q37 0 63.5 -23.5t26.5 -55.5q0 -25 -12 -42t-31 -34.5t-28 -35.5z" />
    <glyph glyph-name="uni1EC4" unicode="&#x1ec4;" horiz-adv-x="534" 
d="M467 409v-124h-248v-160h277v-125h-430v674h416v-125h-263v-140h248zM232 833h114l101 -123h-107l-50 62h-2l-50 -62h-106zM222 849h-71q-1 52 21 82.5t61 30.5q29 0 64 -20q34 -17 43 -17q12 0 18 8.5t8 31.5h70q4 -115 -82 -115q-26 0 -68 22q-26 14 -39 14
q-22 0 -25 -37z" />
    <glyph glyph-name="uni1EC5" unicode="&#x1ec5;" horiz-adv-x="528" 
d="M493 196h-315q4 -45 42.5 -69t95.5 -24q72 0 135 20l20 -103q-75 -30 -177 -30q-123 0 -192 66.5t-69 182.5q0 65 25 122.5t83 98t139 40.5q110 0 164 -71t54 -173q0 -32 -5 -60zM177 300h180q0 37 -19.5 68t-66.5 31q-43 0 -66.5 -30.5t-27.5 -68.5zM222 680h106
l94 -130h-98l-48 71h-2l-48 -71h-99zM208 697h-72q-1 52 21 82.5t61 30.5q29 0 64 -20q34 -16 43 -16q13 0 19 8t7 31h70q4 -115 -82 -115q-25 0 -67 22q-28 14 -40 14q-21 0 -24 -37z" />
    <glyph glyph-name="uni1EC6" unicode="&#x1ec6;" horiz-adv-x="534" 
d="M467 409v-124h-248v-160h277v-125h-430v674h416v-125h-263v-140h248zM220 833h114l101 -123h-107l-50 62h-2l-50 -62h-106zM278 -217q-30 0 -50 20.5t-20 47.5q0 29 20 49t50 20q28 0 47.5 -20t19.5 -49q0 -27 -19.5 -47.5t-47.5 -20.5z" />
    <glyph glyph-name="uni1EC7" unicode="&#x1ec7;" horiz-adv-x="528" 
d="M493 196h-315q4 -45 42.5 -69t95.5 -24q72 0 135 20l20 -103q-75 -30 -177 -30q-123 0 -192 66.5t-69 182.5q0 65 25 122.5t83 98t139 40.5q110 0 164 -71t54 -173q0 -32 -5 -60zM177 300h180q0 37 -19.5 68t-66.5 31q-43 0 -66.5 -30.5t-27.5 -68.5zM213 702h102
l99 -152h-99l-50 87h-2l-50 -87h-100zM265 -80q29 0 48.5 -20t19.5 -51q0 -29 -19.5 -49.5t-49.5 -20.5t-50 20.5t-20 49.5q0 31 20.5 51t50.5 20z" />
    <glyph glyph-name="uni1EC8" unicode="&#x1ec8;" horiz-adv-x="285" 
d="M66 674h153v-674h-153v674zM178 706l-70 15q7 21 28 45t21 41q0 13 -8.5 21.5t-21.5 8.5q-23 0 -45 -34l-48 29q41 79 122 79q40 0 68.5 -25t28.5 -60q0 -26 -12.5 -44t-32.5 -37.5t-30 -38.5z" />
    <glyph glyph-name="uni1EC9" unicode="&#x1ec9;" horiz-adv-x="274" 
d="M213 0h-152v489h152v-489zM163 527l-73 16q6 23 30.5 51t24.5 47q0 15 -9 24t-21 9q-21 0 -44 -34l-49 30q38 79 121 79q42 0 70.5 -24.5t28.5 -62.5t-36.5 -79.5t-42.5 -55.5z" />
    <glyph glyph-name="uni1ECA" unicode="&#x1eca;" horiz-adv-x="285" 
d="M66 674h153v-674h-153v674zM144 -217q-30 0 -50 20.5t-20 47.5q0 29 20 49t50 20q28 0 47.5 -20t19.5 -49q0 -27 -19.5 -47.5t-47.5 -20.5z" />
    <glyph glyph-name="uni1ECB" unicode="&#x1ecb;" horiz-adv-x="274" 
d="M213 0h-152v489h152v-489zM137 702q36 0 58 -21.5t23 -55.5q0 -32 -22.5 -54t-59.5 -22q-35 0 -57.5 22t-21.5 54q-1 33 21.5 55t58.5 22zM139 -80q29 0 48 -20t19 -51q0 -29 -19.5 -49.5t-49.5 -20.5t-50 20.5t-20 49.5q0 31 20.5 51t51.5 20z" />
    <glyph glyph-name="uni1ECC" unicode="&#x1ecc;" horiz-adv-x="717" 
d="M363 685q150 0 235 -97.5t85 -243.5q0 -164 -91 -259.5t-240 -95.5q-146 0 -231.5 97.5t-85.5 245.5q0 154 90.5 253.5t237.5 99.5zM359 564q-76 0 -119.5 -64t-43.5 -165q0 -100 44.5 -162.5t119.5 -62.5t118.5 64t43.5 165q0 95 -43.5 160t-119.5 65zM360 -217
q-30 0 -50 20.5t-20 47.5q0 29 20.5 49t49.5 20q28 0 47.5 -20t19.5 -49q0 -27 -19.5 -47.5t-47.5 -20.5z" />
    <glyph glyph-name="uni1ECD" unicode="&#x1ecd;" horiz-adv-x="577" 
d="M294 500q112 0 181 -69.5t69 -180.5q0 -126 -75.5 -193.5t-182.5 -67.5q-110 0 -181.5 68t-71.5 184q0 118 71.5 188.5t189.5 70.5zM290 392q-51 0 -75.5 -43t-24.5 -104q0 -65 26.5 -106t73.5 -41q44 0 70.5 40.5t26.5 106.5q0 61 -24.5 104t-72.5 43zM290 -80
q29 0 48.5 -20t19.5 -51q0 -29 -19.5 -49.5t-49.5 -20.5t-50.5 20.5t-20.5 49.5q0 31 20.5 51t51.5 20z" />
    <glyph glyph-name="uni1ECE" unicode="&#x1ece;" horiz-adv-x="717" 
d="M363 685q150 0 235 -97.5t85 -243.5q0 -164 -91 -259.5t-240 -95.5q-146 0 -231.5 97.5t-85.5 245.5q0 154 90.5 253.5t237.5 99.5zM359 564q-76 0 -119.5 -64t-43.5 -165q0 -100 44.5 -162.5t119.5 -62.5t118.5 64t43.5 165q0 95 -43.5 160t-119.5 65zM394 706l-70 15
q7 21 28 45t21 41q0 13 -8.5 21.5t-21.5 8.5q-21 0 -45 -34l-48 29q41 79 122 79q41 0 69.5 -25t28.5 -60q0 -26 -12.5 -44t-33 -37.5t-30.5 -38.5z" />
    <glyph glyph-name="uni1ECF" unicode="&#x1ecf;" horiz-adv-x="577" 
d="M294 500q112 0 181 -69.5t69 -180.5q0 -126 -75.5 -193.5t-182.5 -67.5q-110 0 -181.5 68t-71.5 184q0 118 71.5 188.5t189.5 70.5zM290 392q-51 0 -75.5 -43t-24.5 -104q0 -65 26.5 -106t73.5 -41q44 0 70.5 40.5t26.5 106.5q0 61 -24.5 104t-72.5 43zM315 527l-73 16
q6 23 30 51t24 47q0 15 -9 24t-21 9q-23 0 -43 -34l-50 30q39 79 121 79q42 0 71 -24.5t29 -62.5t-36.5 -79.5t-42.5 -55.5z" />
    <glyph glyph-name="uni1ED0" unicode="&#x1ed0;" horiz-adv-x="717" 
d="M363 685q150 0 235 -97.5t85 -243.5q0 -164 -91 -259.5t-240 -95.5q-146 0 -231.5 97.5t-85.5 245.5q0 154 90.5 253.5t237.5 99.5zM359 564q-76 0 -119.5 -64t-43.5 -165q0 -100 44.5 -162.5t119.5 -62.5t118.5 64t43.5 165q0 95 -43.5 160t-119.5 65zM314 833h106
l90 -123h-98l-44 63h-2l-44 -63h-98zM536 915h130l-134 -114h-72z" />
    <glyph glyph-name="uni1ED1" unicode="&#x1ed1;" horiz-adv-x="577" 
d="M294 500q112 0 181 -69.5t69 -180.5q0 -126 -75.5 -193.5t-182.5 -67.5q-110 0 -181.5 68t-71.5 184q0 118 71.5 188.5t189.5 70.5zM290 392q-51 0 -75.5 -43t-24.5 -104q0 -65 26.5 -106t73.5 -41q44 0 70.5 40.5t26.5 106.5q0 61 -24.5 104t-72.5 43zM240 702h106
l89 -152h-97l-44 87h-2l-44 -87h-98zM474 798h117l-116 -150h-77z" />
    <glyph glyph-name="uni1ED2" unicode="&#x1ed2;" horiz-adv-x="717" 
d="M363 685q150 0 235 -97.5t85 -243.5q0 -164 -91 -259.5t-240 -95.5q-146 0 -231.5 97.5t-85.5 245.5q0 154 90.5 253.5t237.5 99.5zM359 564q-76 0 -119.5 -64t-43.5 -165q0 -100 44.5 -162.5t119.5 -62.5t118.5 64t43.5 165q0 95 -43.5 160t-119.5 65zM395 901h131
l65 -113h-79zM310 833h106l90 -123h-98l-44 63h-2l-45 -63h-97z" />
    <glyph glyph-name="uni1ED3" unicode="&#x1ed3;" horiz-adv-x="577" 
d="M294 500q112 0 181 -69.5t69 -180.5q0 -126 -75.5 -193.5t-182.5 -67.5q-110 0 -181.5 68t-71.5 184q0 118 71.5 188.5t189.5 70.5zM290 392q-51 0 -75.5 -43t-24.5 -104q0 -65 26.5 -106t73.5 -41q44 0 70.5 40.5t26.5 106.5q0 61 -24.5 104t-72.5 43zM335 799h114
l69 -151h-77zM241 702h106l90 -152h-97l-45 87h-2l-44 -87h-97z" />
    <glyph glyph-name="uni1ED4" unicode="&#x1ed4;" horiz-adv-x="717" 
d="M363 685q150 0 235 -97.5t85 -243.5q0 -164 -91 -259.5t-240 -95.5q-146 0 -231.5 97.5t-85.5 245.5q0 154 90.5 253.5t237.5 99.5zM359 564q-76 0 -119.5 -64t-43.5 -165q0 -100 44.5 -162.5t119.5 -62.5t118.5 64t43.5 165q0 95 -43.5 160t-119.5 65zM317 833h106
l90 -123h-98l-44 63h-2l-44 -63h-98zM555 758l-59 14q7 20 28.5 43.5t21.5 39.5q0 13 -9 21.5t-21 8.5q-26 0 -46 -36l-45 27q38 73 112 73q39 0 64.5 -22.5t25.5 -56.5q0 -23 -11.5 -39.5t-31 -35t-29.5 -37.5z" />
    <glyph glyph-name="uni1ED5" unicode="&#x1ed5;" horiz-adv-x="577" 
d="M294 500q112 0 181 -69.5t69 -180.5q0 -126 -75.5 -193.5t-182.5 -67.5q-110 0 -181.5 68t-71.5 184q0 118 71.5 188.5t189.5 70.5zM290 392q-51 0 -75.5 -43t-24.5 -104q0 -65 26.5 -106t73.5 -41q44 0 70.5 40.5t26.5 106.5q0 61 -24.5 104t-72.5 43zM237 702h106
l89 -152h-97l-44 87h-2l-45 -87h-97zM473 633l-64 14q7 20 26.5 42.5t19.5 37.5q0 13 -8 21t-20 8q-23 0 -42 -33l-45 28q38 73 114 73q37 0 63.5 -23.5t26.5 -55.5q0 -25 -12 -42t-31 -34.5t-28 -35.5z" />
    <glyph glyph-name="uni1ED6" unicode="&#x1ed6;" horiz-adv-x="717" 
d="M363 685q150 0 235 -97.5t85 -243.5q0 -164 -91 -259.5t-240 -95.5q-146 0 -231.5 97.5t-85.5 245.5q0 154 90.5 253.5t237.5 99.5zM359 564q-76 0 -119.5 -64t-43.5 -165q0 -100 44.5 -162.5t119.5 -62.5t118.5 64t43.5 165q0 95 -43.5 160t-119.5 65zM304 833h114
l101 -123h-107l-50 62h-2l-50 -62h-106zM295 849h-72q-1 52 21.5 82.5t60.5 30.5q29 0 64 -20q36 -17 44 -17q12 0 18 8.5t8 31.5h69q4 -115 -82 -115q-25 0 -67 22q-28 14 -40 14q-21 0 -24 -37z" />
    <glyph glyph-name="uni1ED7" unicode="&#x1ed7;" horiz-adv-x="577" 
d="M294 500q112 0 181 -69.5t69 -180.5q0 -126 -75.5 -193.5t-182.5 -67.5q-110 0 -181.5 68t-71.5 184q0 118 71.5 188.5t189.5 70.5zM290 392q-51 0 -75.5 -43t-24.5 -104q0 -65 26.5 -106t73.5 -41q44 0 70.5 40.5t26.5 106.5q0 61 -24.5 104t-72.5 43zM235 680h106
l94 -130h-98l-48 71h-2l-48 -71h-99zM221 697h-71q-1 52 21 82.5t60 30.5q29 0 65 -20q32 -16 43 -16q12 0 18 8t8 31h69q4 -115 -81 -115q-26 0 -68 22q-28 14 -39 14q-22 0 -25 -37z" />
    <glyph glyph-name="uni1ED8" unicode="&#x1ed8;" horiz-adv-x="717" 
d="M363 685q150 0 235 -97.5t85 -243.5q0 -164 -91 -259.5t-240 -95.5q-146 0 -231.5 97.5t-85.5 245.5q0 154 90.5 253.5t237.5 99.5zM359 564q-76 0 -119.5 -64t-43.5 -165q0 -100 44.5 -162.5t119.5 -62.5t118.5 64t43.5 165q0 95 -43.5 160t-119.5 65zM302 833h114
l101 -123h-107l-50 62h-2l-50 -62h-107zM360 -217q-30 0 -50 20.5t-20 47.5q0 29 20.5 49t49.5 20q28 0 47.5 -20t19.5 -49q0 -27 -19.5 -47.5t-47.5 -20.5z" />
    <glyph glyph-name="uni1ED9" unicode="&#x1ed9;" horiz-adv-x="577" 
d="M294 500q112 0 181 -69.5t69 -180.5q0 -126 -75.5 -193.5t-182.5 -67.5q-110 0 -181.5 68t-71.5 184q0 118 71.5 188.5t189.5 70.5zM290 392q-51 0 -75.5 -43t-24.5 -104q0 -65 26.5 -106t73.5 -41q44 0 70.5 40.5t26.5 106.5q0 61 -24.5 104t-72.5 43zM237 702h102
l99 -152h-99l-50 87h-2l-50 -87h-100zM290 -80q29 0 48.5 -20t19.5 -51q0 -29 -19.5 -49.5t-49.5 -20.5t-50.5 20.5t-20.5 49.5q0 31 20.5 51t51.5 20z" />
    <glyph glyph-name="uni1EDA" unicode="&#x1eda;" horiz-adv-x="717" 
d="M360 110q75 0 118.5 64t43.5 165q0 95 -43.5 160t-119.5 65q-75 0 -119 -65t-44 -163q-1 -98 43.5 -162t120.5 -64zM600 743l108 19q24 -48 24 -102q0 -48 -26.5 -78.5t-78.5 -31.5q56 -89 56 -206q0 -164 -91 -259.5t-240 -95.5q-146 0 -231.5 97.5t-85.5 245.5
q0 154 90.5 253.5t237.5 99.5q61 0 123 -20q11 -4 32.5 -14t38 -15.5t28.5 -5.5q37 0 37 40q0 34 -22 73zM378 833h160l-122 -123h-122z" />
    <glyph glyph-name="uni1EDB" unicode="&#x1edb;" horiz-adv-x="588" 
d="M290 392q-51 0 -75.5 -43t-24.5 -104q0 -65 26.5 -106t73.5 -41q44 0 70.5 40.5t26.5 106.5q0 61 -24.5 104t-72.5 43zM478 566l106 18q23 -46 23 -94q0 -46 -25.5 -73.5t-71.5 -32.5q34 -58 34 -134q0 -126 -75.5 -193.5t-182.5 -67.5q-110 0 -181.5 68t-71.5 184
q0 118 71.5 188.5t189.5 70.5q47 0 89 -13q4 -1 35.5 -14t45.5 -13q35 0 35 36q0 33 -21 70zM304 702h141l-122 -152h-105z" />
    <glyph glyph-name="uni1EDC" unicode="&#x1edc;" horiz-adv-x="717" 
d="M360 110q75 0 118.5 64t43.5 165q0 95 -43.5 160t-119.5 65q-75 0 -119 -65t-44 -163q-1 -98 43.5 -162t120.5 -64zM600 743l108 19q24 -48 24 -102q0 -48 -26.5 -78.5t-78.5 -31.5q56 -89 56 -206q0 -164 -91 -259.5t-240 -95.5q-146 0 -231.5 97.5t-85.5 245.5
q0 154 90.5 253.5t237.5 99.5q61 0 123 -20q11 -4 32.5 -14t38 -15.5t28.5 -5.5q37 0 37 40q0 34 -22 73zM195 833h160l84 -121h-121z" />
    <glyph glyph-name="uni1EDD" unicode="&#x1edd;" horiz-adv-x="588" 
d="M290 392q-51 0 -75.5 -43t-24.5 -104q0 -65 26.5 -106t73.5 -41q44 0 70.5 40.5t26.5 106.5q0 61 -24.5 104t-72.5 43zM478 566l106 18q23 -46 23 -94q0 -46 -25.5 -73.5t-71.5 -32.5q34 -58 34 -134q0 -126 -75.5 -193.5t-182.5 -67.5q-110 0 -181.5 68t-71.5 184
q0 118 71.5 188.5t189.5 70.5q47 0 89 -13q4 -1 35.5 -14t45.5 -13q35 0 35 36q0 33 -21 70zM137 702h140l86 -152h-104z" />
    <glyph glyph-name="uni1EDE" unicode="&#x1ede;" horiz-adv-x="717" 
d="M360 110q75 0 118.5 64t43.5 165q0 95 -43.5 160t-119.5 65q-75 0 -119 -65t-44 -163q-1 -98 43.5 -162t120.5 -64zM600 743l108 19q24 -48 24 -102q0 -48 -26.5 -78.5t-78.5 -31.5q56 -89 56 -206q0 -164 -91 -259.5t-240 -95.5q-146 0 -231.5 97.5t-85.5 245.5
q0 154 90.5 253.5t237.5 99.5q61 0 123 -20q11 -4 32.5 -14t38 -15.5t28.5 -5.5q37 0 37 40q0 34 -22 73zM394 706l-70 15q7 21 28 45t21 41q0 13 -8.5 21.5t-21.5 8.5q-21 0 -45 -34l-48 29q41 79 122 79q41 0 69.5 -25t28.5 -60q0 -26 -12.5 -44t-33 -37.5t-30.5 -38.5z
" />
    <glyph glyph-name="uni1EDF" unicode="&#x1edf;" horiz-adv-x="588" 
d="M290 392q-51 0 -75.5 -43t-24.5 -104q0 -65 26.5 -106t73.5 -41q44 0 70.5 40.5t26.5 106.5q0 61 -24.5 104t-72.5 43zM478 566l106 18q23 -46 23 -94q0 -46 -25.5 -73.5t-71.5 -32.5q34 -58 34 -134q0 -126 -75.5 -193.5t-182.5 -67.5q-110 0 -181.5 68t-71.5 184
q0 118 71.5 188.5t189.5 70.5q47 0 89 -13q4 -1 35.5 -14t45.5 -13q35 0 35 36q0 33 -21 70zM314 527l-73 16q6 23 30.5 51t24.5 47q0 15 -9 24t-21 9q-21 0 -44 -34l-49 30q38 79 121 79q42 0 70.5 -24.5t28.5 -62.5t-36.5 -79.5t-42.5 -55.5z" />
    <glyph glyph-name="uni1EE0" unicode="&#x1ee0;" horiz-adv-x="717" 
d="M360 110q75 0 118.5 64t43.5 165q0 95 -43.5 160t-119.5 65q-75 0 -119 -65t-44 -163q-1 -98 43.5 -162t120.5 -64zM600 743l108 19q24 -48 24 -102q0 -48 -26.5 -78.5t-78.5 -31.5q56 -89 56 -206q0 -164 -91 -259.5t-240 -95.5q-146 0 -231.5 97.5t-85.5 245.5
q0 154 90.5 253.5t237.5 99.5q61 0 123 -20q11 -4 32.5 -14t38 -15.5t28.5 -5.5q37 0 37 40q0 34 -22 73zM296 715h-70q-2 61 19 94t58 33q29 0 64 -20q30 -19 44 -19q12 0 18 9.5t9 33.5h68q4 -125 -79 -125q-31 0 -65 19q-34 18 -42 18q-21 0 -24 -43z" />
    <glyph glyph-name="uni1EE1" unicode="&#x1ee1;" horiz-adv-x="588" 
d="M290 392q-51 0 -75.5 -43t-24.5 -104q0 -65 26.5 -106t73.5 -41q44 0 70.5 40.5t26.5 106.5q0 61 -24.5 104t-72.5 43zM478 566l106 18q23 -46 23 -94q0 -46 -25.5 -73.5t-71.5 -32.5q34 -58 34 -134q0 -126 -75.5 -193.5t-182.5 -67.5q-110 0 -181.5 68t-71.5 184
q0 118 71.5 188.5t189.5 70.5q47 0 89 -13q4 -1 35.5 -14t45.5 -13q35 0 35 36q0 33 -21 70zM217 558h-71q-3 62 19.5 96.5t61.5 34.5q26 0 66 -20q32 -20 42 -20q12 0 18 9.5t8 35.5h70q4 -129 -82 -129q-27 0 -69 22q-29 16 -38 16q-22 0 -25 -45z" />
    <glyph glyph-name="uni1EE2" unicode="&#x1ee2;" horiz-adv-x="717" 
d="M360 110q75 0 118.5 64t43.5 165q0 95 -43.5 160t-119.5 65q-75 0 -119 -65t-44 -163q-1 -98 43.5 -162t120.5 -64zM600 743l108 19q24 -48 24 -102q0 -48 -26.5 -78.5t-78.5 -31.5q56 -89 56 -206q0 -164 -91 -259.5t-240 -95.5q-146 0 -231.5 97.5t-85.5 245.5
q0 154 90.5 253.5t237.5 99.5q61 0 123 -20q11 -4 32.5 -14t38 -15.5t28.5 -5.5q37 0 37 40q0 34 -22 73zM360 -217q-30 0 -50 20.5t-20 47.5q0 29 20.5 49t49.5 20q28 0 47.5 -20t19.5 -49q0 -27 -19.5 -47.5t-47.5 -20.5z" />
    <glyph glyph-name="uni1EE3" unicode="&#x1ee3;" horiz-adv-x="588" 
d="M290 392q-51 0 -75.5 -43t-24.5 -104q0 -65 26.5 -106t73.5 -41q44 0 70.5 40.5t26.5 106.5q0 61 -24.5 104t-72.5 43zM478 566l106 18q23 -46 23 -94q0 -46 -25.5 -73.5t-71.5 -32.5q34 -58 34 -134q0 -126 -75.5 -193.5t-182.5 -67.5q-110 0 -181.5 68t-71.5 184
q0 118 71.5 188.5t189.5 70.5q47 0 89 -13q4 -1 35.5 -14t45.5 -13q35 0 35 36q0 33 -21 70zM293 -80q29 0 48 -20t19 -51q0 -29 -19.5 -49.5t-49.5 -20.5q-29 0 -49.5 20.5t-20.5 49.5q0 31 20.5 51t51.5 20z" />
    <glyph glyph-name="uni1EE4" unicode="&#x1ee4;" horiz-adv-x="682" 
d="M65 674h153v-388q0 -86 31.5 -130.5t90.5 -44.5q124 0 124 175v388h152v-378q0 -153 -73 -230t-208 -77q-270 0 -270 309v376zM342 -217q-29 0 -49.5 20.5t-20.5 47.5q0 29 20.5 49t50.5 20q28 0 47 -20t19 -49q0 -27 -19.5 -47.5t-47.5 -20.5z" />
    <glyph glyph-name="uni1EE5" unicode="&#x1ee5;" horiz-adv-x="583" 
d="M522 489v-332q0 -75 4 -157h-132l-7 69h-3q-51 -80 -153 -80q-79 0 -125.5 52.5t-46.5 160.5v287h153v-263q0 -114 76 -114q54 0 76 53q5 11 5 33v291h153zM293 -80q29 0 48.5 -20t19.5 -51q0 -29 -19.5 -49.5t-49.5 -20.5t-50 20.5t-20 49.5q0 31 20.5 51t50.5 20z" />
    <glyph glyph-name="uni1EE6" unicode="&#x1ee6;" horiz-adv-x="682" 
d="M65 674h153v-388q0 -86 31.5 -130.5t90.5 -44.5q124 0 124 175v388h152v-378q0 -153 -73 -230t-208 -77q-270 0 -270 309v376zM376 706l-70 15q7 21 28 45t21 41q0 13 -8.5 21.5t-20.5 8.5q-22 0 -46 -34l-48 29q41 79 122 79q41 0 69.5 -25t28.5 -60q0 -26 -12.5 -44
t-33 -37.5t-30.5 -38.5z" />
    <glyph glyph-name="uni1EE7" unicode="&#x1ee7;" horiz-adv-x="583" 
d="M522 489v-332q0 -75 4 -157h-132l-7 69h-3q-51 -80 -153 -80q-79 0 -125.5 52.5t-46.5 160.5v287h153v-263q0 -114 76 -114q54 0 76 53q5 11 5 33v291h153zM318 527l-73 16q6 23 30 51t24 47q0 15 -8.5 24t-21.5 9q-23 0 -43 -34l-49 30q38 79 121 79q42 0 70.5 -24.5
t28.5 -62.5t-36.5 -79.5t-42.5 -55.5z" />
    <glyph glyph-name="uni1EE8" unicode="&#x1ee8;" horiz-adv-x="728" 
d="M611 780l107 17q22 -44 22 -93q0 -99 -107 -109l-17 -2v-297q0 -153 -73 -230t-208 -77q-270 0 -270 309v376h153v-388q0 -86 31.5 -130.5t90.5 -44.5q124 0 124 175v388h116q30 0 41 9.5t11 29.5q0 33 -21 67zM348 833h160l-123 -123h-122z" />
    <glyph glyph-name="uni1EE9" unicode="&#x1ee9;" horiz-adv-x="583" 
d="M493 596l106 18q23 -46 23 -91q0 -44 -25.5 -70.5t-66.5 -31.5l-8 -1v-263q0 -75 4 -157h-132l-7 69h-3q-51 -80 -153 -80q-79 0 -125.5 52.5t-46.5 160.5v287h153v-263q0 -114 76 -114q54 0 76 53q5 11 5 33v291h93q52 0 52 41q0 30 -21 66zM323 702h141l-122 -152h-105
z" />
    <glyph glyph-name="uni1EEA" unicode="&#x1eea;" horiz-adv-x="728" 
d="M611 780l107 17q22 -44 22 -93q0 -99 -107 -109l-17 -2v-297q0 -153 -73 -230t-208 -77q-270 0 -270 309v376h153v-388q0 -86 31.5 -130.5t90.5 -44.5q124 0 124 175v388h116q30 0 41 9.5t11 29.5q0 33 -21 67zM174 833h160l85 -121h-122z" />
    <glyph glyph-name="uni1EEB" unicode="&#x1eeb;" horiz-adv-x="583" 
d="M493 596l106 18q23 -46 23 -91q0 -44 -25.5 -70.5t-66.5 -31.5l-8 -1v-263q0 -75 4 -157h-132l-7 69h-3q-51 -80 -153 -80q-79 0 -125.5 52.5t-46.5 160.5v287h153v-263q0 -114 76 -114q54 0 76 53q5 11 5 33v291h93q52 0 52 41q0 30 -21 66zM144 702h140l86 -152h-104z
" />
    <glyph glyph-name="uni1EEC" unicode="&#x1eec;" horiz-adv-x="728" 
d="M611 780l107 17q22 -44 22 -93q0 -99 -107 -109l-17 -2v-297q0 -153 -73 -230t-208 -77q-270 0 -270 309v376h153v-388q0 -86 31.5 -130.5t90.5 -44.5q124 0 124 175v388h116q30 0 41 9.5t11 29.5q0 33 -21 67zM399 706l-70 15q7 21 28 45t21 41q0 13 -8.5 21.5
t-20.5 8.5q-23 0 -45 -34l-48 29q40 79 122 79q40 0 68.5 -25t28.5 -60q0 -26 -12.5 -44t-33 -37.5t-30.5 -38.5z" />
    <glyph glyph-name="uni1EED" unicode="&#x1eed;" horiz-adv-x="583" 
d="M493 596l106 18q23 -46 23 -91q0 -44 -25.5 -70.5t-66.5 -31.5l-8 -1v-263q0 -75 4 -157h-132l-7 69h-3q-51 -80 -153 -80q-79 0 -125.5 52.5t-46.5 160.5v287h153v-263q0 -114 76 -114q54 0 76 53q5 11 5 33v291h93q52 0 52 41q0 30 -21 66zM325 527l-73 16q6 23 30 51
t24 47q0 15 -8.5 24t-21.5 9q-23 0 -43 -34l-49 30q38 79 121 79q42 0 70.5 -24.5t28.5 -62.5t-36.5 -79.5t-42.5 -55.5z" />
    <glyph glyph-name="uni1EEE" unicode="&#x1eee;" horiz-adv-x="728" 
d="M611 780l107 17q22 -44 22 -93q0 -99 -107 -109l-17 -2v-297q0 -153 -73 -230t-208 -77q-270 0 -270 309v376h153v-388q0 -86 31.5 -130.5t90.5 -44.5q124 0 124 175v388h116q30 0 41 9.5t11 29.5q0 33 -21 67zM293 715h-70q-1 62 19.5 94.5t58.5 32.5q30 0 63 -20
q32 -19 44 -19q13 0 19 9.5t8 33.5h69q3 -125 -79 -125q-31 0 -65 19q-36 18 -43 18q-19 0 -24 -43z" />
    <glyph glyph-name="uni1EEF" unicode="&#x1eef;" horiz-adv-x="583" 
d="M493 596l106 18q23 -46 23 -91q0 -44 -25.5 -70.5t-66.5 -31.5l-8 -1v-263q0 -75 4 -157h-132l-7 69h-3q-51 -80 -153 -80q-79 0 -125.5 52.5t-46.5 160.5v287h153v-263q0 -114 76 -114q54 0 76 53q5 11 5 33v291h93q52 0 52 41q0 30 -21 66zM224 558h-72q-2 62 20 96.5
t62 34.5q25 0 65 -20q32 -20 42 -20q12 0 18 9.5t8 35.5h70q4 -129 -82 -129q-27 0 -69 22q-29 16 -38 16q-22 0 -24 -45z" />
    <glyph glyph-name="uni1EF0" unicode="&#x1ef0;" horiz-adv-x="728" 
d="M611 780l107 17q22 -44 22 -93q0 -99 -107 -109l-17 -2v-297q0 -153 -73 -230t-208 -77q-270 0 -270 309v376h153v-388q0 -86 31.5 -130.5t90.5 -44.5q124 0 124 175v388h116q30 0 41 9.5t11 29.5q0 33 -21 67zM366 -80q29 0 48 -20t19 -51q0 -29 -19.5 -49.5
t-49.5 -20.5t-50 20.5t-20 49.5q0 31 20.5 51t51.5 20z" />
    <glyph glyph-name="uni1EF1" unicode="&#x1ef1;" horiz-adv-x="583" 
d="M493 596l106 18q23 -46 23 -91q0 -44 -25.5 -70.5t-66.5 -31.5l-8 -1v-263q0 -75 4 -157h-132l-7 69h-3q-51 -80 -153 -80q-79 0 -125.5 52.5t-46.5 160.5v287h153v-263q0 -114 76 -114q54 0 76 53q5 11 5 33v291h93q52 0 52 41q0 30 -21 66zM292 -80q29 0 48.5 -20
t19.5 -51q0 -29 -19.5 -49.5t-49.5 -20.5t-50.5 20.5t-20.5 49.5q0 31 20.5 51t51.5 20z" />
    <glyph glyph-name="Ygrave" unicode="&#x1ef2;" horiz-adv-x="603" 
d="M374 0h-152v276l-213 398h174l69 -162q22 -51 52 -129h2q16 46 51 129l68 162h171l-222 -393v-281zM139 831h160l85 -121h-122z" />
    <glyph glyph-name="ygrave" unicode="&#x1ef3;" horiz-adv-x="523" 
d="M6 489h169l73 -240q18 -67 24 -91h3q4 15 11.5 48t10.5 43l60 240h163l-114 -322q-50 -140 -89.5 -211t-82.5 -110q-65 -56 -147 -67l-32 129q31 5 66 26q38 20 63 61q8 11 8 22t-7 25zM115 702h141l86 -152h-104z" />
    <glyph glyph-name="uni1EF4" unicode="&#x1ef4;" horiz-adv-x="603" 
d="M374 0h-152v276l-213 398h174l69 -162q22 -51 52 -129h2q16 46 51 129l68 162h171l-222 -393v-281zM303 -217q-29 0 -49.5 20.5t-20.5 47.5q0 29 20 49t50 20q28 0 47.5 -20t19.5 -49q0 -27 -19.5 -47.5t-47.5 -20.5z" />
    <glyph glyph-name="uni1EF5" unicode="&#x1ef5;" horiz-adv-x="523" 
d="M6 489h169l73 -240q18 -67 24 -91h3q4 15 11.5 48t10.5 43l60 240h163l-114 -322q-50 -140 -89.5 -211t-82.5 -110q-65 -56 -147 -67l-32 129q31 5 66 26q38 20 63 61q8 11 8 22t-7 25zM405 -80q29 0 48.5 -20t19.5 -51q0 -29 -19.5 -49.5t-49.5 -20.5t-50 20.5t-20 49.5
q0 31 20.5 51t50.5 20z" />
    <glyph glyph-name="uni1EF6" unicode="&#x1ef6;" horiz-adv-x="603" 
d="M374 0h-152v276l-213 398h174l69 -162q22 -51 52 -129h2q16 46 51 129l68 162h171l-222 -393v-281zM337 706l-70 15q7 22 28 45.5t21 40.5q0 13 -8.5 21.5t-21.5 8.5q-23 0 -45 -34l-48 29q39 79 122 79q40 0 68.5 -25t28.5 -60q0 -26 -12.5 -44t-32.5 -37.5t-30 -38.5z
" />
    <glyph glyph-name="uni1EF7" unicode="&#x1ef7;" horiz-adv-x="523" 
d="M6 489h169l73 -240q18 -67 24 -91h3q4 15 11.5 48t10.5 43l60 240h163l-114 -322q-50 -140 -89.5 -211t-82.5 -110q-65 -56 -147 -67l-32 129q31 5 66 26q38 20 63 61q8 11 8 22t-7 25zM299 527l-73 16q6 23 30 51t24 47q0 15 -8.5 24t-20.5 9q-21 0 -44 -34l-49 30
q38 79 121 79q42 0 70.5 -24.5t28.5 -62.5t-36.5 -79.5t-42.5 -55.5z" />
    <glyph glyph-name="uni1EF8" unicode="&#x1ef8;" horiz-adv-x="603" 
d="M374 0h-152v276l-213 398h174l69 -162q22 -51 52 -129h2q16 46 51 129l68 162h171l-222 -393v-281zM231 715h-70q-2 61 19 94t58 33q29 0 64 -20q30 -19 44 -19q12 0 18 9.5t9 33.5h68q4 -125 -79 -125q-31 0 -65 19q-34 18 -42 18q-21 0 -24 -43z" />
    <glyph glyph-name="uni1EF9" unicode="&#x1ef9;" horiz-adv-x="523" 
d="M6 489h169l73 -240q18 -67 24 -91h3q4 15 11.5 48t10.5 43l60 240h163l-114 -322q-50 -140 -89.5 -211t-82.5 -110q-65 -56 -147 -67l-32 129q31 5 66 26q38 20 63 61q8 11 8 22t-7 25zM201 558h-72q-2 62 20 96.5t62 34.5q25 0 65 -20q32 -20 42 -20q12 0 18 9.5t8 35.5
h70q4 -129 -82 -129q-27 0 -69 22q-29 16 -38 16q-23 0 -24 -45z" />
    <glyph glyph-name="uni2010" unicode="&#x2010;" horiz-adv-x="322" 
d="M30 313h262v-101h-262v101z" />
    <glyph glyph-name="endash" unicode="&#x2013;" horiz-adv-x="500" 
d="M30 301h440v-94h-440v94z" />
    <glyph glyph-name="emdash" unicode="&#x2014;" horiz-adv-x="1000" 
d="M30 301h940v-94h-940v94z" />
    <glyph glyph-name="quoteleft" unicode="&#x2018;" horiz-adv-x="260" 
d="M169 415l-142 -9q49 156 120 271l92 8q-48 -132 -70 -270z" />
    <glyph glyph-name="quoteright" unicode="&#x2019;" horiz-adv-x="260" 
d="M95 676l143 9q-48 -150 -120 -271l-92 -8q50 142 69 270z" />
    <glyph glyph-name="quotesinglbase" unicode="&#x201a;" horiz-adv-x="260" 
d="M108 -96l-92 -8q48 131 70 269l142 10q-49 -156 -120 -271z" />
    <glyph glyph-name="quotedblleft" unicode="&#x201c;" horiz-adv-x="454" 
d="M168 415l-142 -9q49 156 120 271l92 8q-48 -132 -70 -270zM363 415l-142 -9q49 156 120 271l92 8q-49 -140 -70 -270z" />
    <glyph glyph-name="quotedblright" unicode="&#x201d;" horiz-adv-x="454" 
d="M95 676l142 9q-48 -150 -120 -271l-92 -8q49 140 70 270zM290 676l142 9q-49 -156 -120 -271l-92 -8q49 140 70 270z" />
    <glyph glyph-name="quotedblbase" unicode="&#x201e;" horiz-adv-x="459" 
d="M107 -96l-92 -8q48 131 70 269l142 10q-49 -156 -120 -271zM303 -96l-92 -8q49 139 70 269l142 10q-48 -150 -120 -271z" />
    <glyph glyph-name="dagger" unicode="&#x2020;" horiz-adv-x="524" 
d="M193 674h138l-13 -201l171 12v-118l-171 12l13 -429h-138l14 429l-172 -12v118l172 -12z" />
    <glyph glyph-name="daggerdbl" unicode="&#x2021;" horiz-adv-x="524" 
d="M194 674h136l-11 -185l170 11v-117l-170 12v-158l170 12v-118l-170 12l11 -193h-136l10 193l-170 -12v118l170 -12v158l-170 -12v117l170 -11z" />
    <glyph glyph-name="bullet" unicode="&#x2022;" horiz-adv-x="338" 
d="M169 130q-54 0 -92 37.5t-38 93.5q-1 54 37.5 92.5t92.5 38.5t92 -38t38 -93t-37.5 -93t-92.5 -38z" />
    <glyph glyph-name="ellipsis" unicode="&#x2026;" horiz-adv-x="1000" 
d="M166 -11q-39 0 -64 26t-25 66q0 41 25 67t65 26q39 0 64 -26t25 -67q0 -40 -25 -66t-65 -26zM500 -11q-40 0 -65 26t-25 66t25.5 66.5t64.5 26.5q40 0 64.5 -26t25.5 -67q0 -40 -25 -66t-65 -26zM834 -11q-40 0 -65 26t-25 66t25.5 66.5t64.5 26.5q40 0 64.5 -26
t25.5 -67q0 -40 -25 -66t-65 -26z" />
    <glyph glyph-name="perthousand" unicode="&#x2030;" horiz-adv-x="1285" 
d="M677 391q82 0 128.5 -53.5t46.5 -139.5q0 -97 -52.5 -152t-127.5 -55q-76 0 -126 53.5t-51 142.5q0 89 50 146.5t132 57.5zM675 308q-33 0 -49.5 -32.5t-16.5 -84.5q-1 -52 16.5 -84.5t49.5 -32.5q64 0 64 117t-64 117zM1081 391q82 0 128.5 -53.5t46.5 -139.5
q0 -97 -52.5 -152t-127.5 -55q-76 0 -126 53t-51 143q0 89 50 146.5t132 57.5zM1079 308q-33 0 -50 -32.5t-17 -84.5q0 -53 17.5 -85t49.5 -32q64 0 64 117t-64 117zM209 661q82 0 128.5 -53.5t46.5 -139.5q0 -97 -52.5 -152t-127.5 -55q-76 0 -126.5 53.5t-50.5 142.5
t50 146.5t132 57.5zM206 578q-32 0 -49 -32.5t-17 -84.5q0 -53 17.5 -85t49.5 -32q64 0 64 117t-65 117zM293 -11h-81l373 672h82z" />
    <glyph glyph-name="guilsinglleft" unicode="&#x2039;" horiz-adv-x="270" 
d="M248 443l-119 -191l119 -191h-106l-116 191l116 191h106z" />
    <glyph glyph-name="guilsinglright" unicode="&#x203a;" horiz-adv-x="270" 
d="M142 252l-120 191h105l117 -191l-117 -191h-105z" />
    <glyph glyph-name="fraction" unicode="&#x2044;" horiz-adv-x="125" 
d="M-81 -11h-82l369 672h83z" />
    <glyph glyph-name="zero.superior" unicode="&#x2070;" horiz-adv-x="378" 
d="M188 438q-82 0 -124.5 56t-42.5 144q0 87 42.5 143.5t125.5 56.5q82 0 125 -56t43 -145q0 -85 -42 -142t-127 -57zM189 515q56 0 56 122q0 123 -56 123t-56 -123q0 -122 56 -122z" />
    <glyph glyph-name="four.superior" unicode="&#x2074;" horiz-adv-x="393" 
d="M321 443h-109v90h-192v63l166 240h135v-229h51v-74h-51v-90zM212 607v74q0 14 2 39.5t2 34.5h-2q-26 -51 -36 -66l-53 -81l2 -1h85z" />
    <glyph glyph-name="five.superior" unicode="&#x2075;" horiz-adv-x="348" 
d="M299 833v-85h-161l-7 -49q3 0 12.5 0.5t13.5 0.5q73 0 113 -28q48 -33 48 -97q0 -59 -48.5 -98t-129.5 -39q-75 0 -119 22l18 77q43 -19 95 -19q29 0 52.5 13t23.5 38q0 58 -113 58q-25 0 -57 -4l27 210h232z" />
    <glyph glyph-name="six.superior" unicode="&#x2076;" horiz-adv-x="363" 
d="M295 836v-80q-10 2 -37 2q-107 -7 -130 -79l2 -1q36 27 85 27q56 0 91 -33t35 -91q0 -64 -45.5 -103.5t-107.5 -39.5q-82 0 -124 49.5t-42 121.5q0 108 69 169q61 55 164 58q26 2 40 0zM186 515q22 0 35.5 17t13.5 43t-14 43t-42 17q-17 0 -31 -10t-20 -24q-3 -7 -3 -19
q0 -27 16.5 -47t44.5 -20z" />
    <glyph glyph-name="seven.superior" unicode="&#x2077;" horiz-adv-x="333" 
d="M23 833h295v-65l-165 -325h-113l166 303v2h-183v85z" />
    <glyph glyph-name="eight.superior" unicode="&#x2078;" horiz-adv-x="361" 
d="M182 838q67 0 103 -30.5t36 -71.5q0 -57 -59 -83v-2q31 -11 53 -34.5t22 -59.5q0 -53 -43 -86t-117 -33q-77 0 -115.5 33t-38.5 74q0 63 73 94v2q-60 28 -60 85q0 50 42 81t104 31zM181 509q21 0 35 12t14 31q0 41 -57 55q-44 -14 -44 -51q0 -19 14.5 -33t37.5 -14z
M179 768q-21 0 -33 -11t-12 -28q0 -32 53 -49q16 5 26.5 17t10.5 28q0 18 -12 30.5t-33 12.5z" />
    <glyph glyph-name="nine.superior" unicode="&#x2079;" horiz-adv-x="358" 
d="M58 439v79q11 -1 39 -1q51 3 81 20q40 22 52 63l-2 1q-27 -25 -79 -25q-53 0 -90.5 32.5t-37.5 88.5q0 59 45 100t111 41q79 0 119 -49.5t40 -119.5q0 -116 -67 -175q-60 -53 -172 -56q-8 -1 -22.5 0t-16.5 1zM177 761q-21 0 -35.5 -16.5t-14.5 -42.5q0 -23 13.5 -40
t38.5 -17q34 0 48 24q4 7 4 22q0 30 -13 50t-41 20z" />
    <glyph glyph-name="parenleft.superior" unicode="&#x207d;" horiz-adv-x="204" 
d="M110 868h76q-59 -107 -59 -239q0 -130 59 -238h-76q-69 101 -69 238q0 134 69 239z" />
    <glyph glyph-name="parenright.superior" unicode="&#x207e;" horiz-adv-x="204" 
d="M94 391h-75q58 114 58 238q0 131 -58 239h75q69 -101 69 -239q0 -136 -69 -238z" />
    <glyph glyph-name="zero.inferior" unicode="&#x2080;" horiz-adv-x="378" 
d="M188 -152q-82 0 -124.5 56t-42.5 144t42.5 144t125.5 56q82 0 125 -56t43 -144q0 -86 -42 -143t-127 -57zM189 -74q56 0 56 122t-56 122t-56 -122t56 -122z" />
    <glyph glyph-name="one.inferior" unicode="&#x2081;" 
d="M235 -147h-117v295h-2l-79 -35l-16 82l112 48h102v-390z" />
    <glyph glyph-name="two.inferior" unicode="&#x2082;" horiz-adv-x="352" 
d="M15 -147v56l61 56q50 44 67 60t33.5 39.5t16.5 44.5t-16 34.5t-43 13.5q-45 0 -86 -28l-30 76q59 43 145 43q73 0 113 -34t40 -87q0 -33 -18.5 -65t-38 -50.5t-58.5 -50.5l-24 -19v-2h146v-87h-308z" />
    <glyph glyph-name="three.inferior" unicode="&#x2083;" horiz-adv-x="347" 
d="M47 144l-22 72q52 32 140 32q69 0 107 -28t38 -71q0 -31 -23 -54t-60 -34v-2q42 -5 69.5 -30t27.5 -62q0 -53 -49 -86t-131 -33q-84 0 -135 28l23 78q50 -26 98 -26q32 0 52 13t19 32q0 24 -25 37t-61 13h-30v68h28q29 0 53 10.5t24 31.5q0 35 -53 35q-44 0 -90 -24z" />
    <glyph glyph-name="four.inferior" unicode="&#x2084;" horiz-adv-x="393" 
d="M321 -147h-109v90h-192v64l166 239h135v-228h51v-75h-51v-90zM212 18v73q0 14 2 40.5t2 33.5l-2 1q-29 -57 -36 -67l-53 -80l2 -1h85z" />
    <glyph glyph-name="five.inferior" unicode="&#x2085;" horiz-adv-x="348" 
d="M299 243v-85h-161l-7 -49q7 1 26 1q73 0 113 -28q48 -31 48 -96q0 -60 -48.5 -99t-129.5 -39q-71 0 -119 22l18 78q40 -20 95 -20q29 0 52.5 13t23.5 39q0 58 -113 58q-25 0 -57 -4l27 209h232z" />
    <glyph glyph-name="six.inferior" unicode="&#x2086;" horiz-adv-x="363" 
d="M295 246v-79q-22 2 -37 1q-107 -6 -130 -79h2q36 27 85 27q56 0 91 -33.5t35 -91.5q0 -64 -45.5 -103.5t-107.5 -39.5q-82 0 -124 50t-42 121q0 107 69 170q59 54 164 58q31 0 40 -1zM186 -74q21 0 35 17t14 42q0 26 -14 43.5t-42 17.5q-17 0 -31 -10t-20 -24
q-3 -7 -3 -20q0 -27 16.5 -46.5t44.5 -19.5z" />
    <glyph glyph-name="seven.inferior" unicode="&#x2087;" horiz-adv-x="333" 
d="M23 243h295v-64l-165 -326h-113l166 304v1h-183v85z" />
    <glyph glyph-name="eight.inferior" unicode="&#x2088;" horiz-adv-x="361" 
d="M182 248q67 0 103 -30t36 -71q0 -58 -59 -84v-1q75 -28 75 -95q0 -52 -43 -85.5t-117 -33.5q-77 0 -115.5 33.5t-38.5 74.5q0 63 73 94v1q-60 30 -60 86q0 49 41.5 80t104.5 31zM181 -80q21 0 35 11.5t14 30.5q0 42 -57 56q-44 -15 -44 -51q0 -19 14.5 -33t37.5 -14z
M179 178q-21 0 -33 -11t-12 -28q0 -33 53 -48q16 5 26.5 17t10.5 27q0 18 -12 30.5t-33 12.5z" />
    <glyph glyph-name="nine.inferior" unicode="&#x2089;" horiz-adv-x="358" 
d="M58 -150v79q24 -2 39 -1q47 2 81 20q41 23 52 63l-2 1q-28 -26 -79 -26q-53 0 -90.5 32.5t-37.5 89.5q0 59 45 99.5t111 40.5q79 0 119 -49.5t40 -119.5q0 -115 -67 -174q-58 -53 -172 -56q-18 -1 -39 1zM177 171q-21 0 -35.5 -16t-14.5 -42q0 -24 13.5 -40.5t38.5 -16.5
q35 0 48 23q4 7 4 23q0 29 -13 49t-41 20z" />
    <glyph glyph-name="parenleft.inferior" unicode="&#x208d;" horiz-adv-x="204" 
d="M110 278h76q-59 -107 -59 -238q0 -129 59 -239h-76q-69 101 -69 239q0 136 69 238z" />
    <glyph glyph-name="parenright.inferior" unicode="&#x208e;" horiz-adv-x="204" 
d="M94 -199h-75q58 114 58 239q0 130 -58 238h75q69 -101 69 -238t-69 -239z" />
    <glyph glyph-name="dong" unicode="&#x20ab;" horiz-adv-x="555" 
d="M87 104h384v-89h-384v89zM340 675h127v-57h64v-72h-64v-285q0 -71 3 -107h-114l-5 52h-2q-36 -60 -121 -60q-70 0 -117.5 50.5t-47.5 132.5q0 88 50.5 139.5t123.5 51.5q70 0 101 -41h2v67h-119v72h119v57zM340 316v41q0 8 -2 20q-5 21 -24.5 36t-44.5 15
q-37 0 -57 -26.5t-20 -68.5t21 -66.5t55 -24.5q25 0 45 14t24 36q3 10 3 24z" />
    <glyph glyph-name="Euro" unicode="&#x20ac;" horiz-adv-x="555" 
d="M502 138l24 -111q-68 -38 -156 -38q-74 0 -138 29.5t-106 84.5q-43 54 -56 130h-65v71h55v17q0 5 0.5 15t0.5 15h-56v71h67q19 79 69 137q91 102 231 102q82 0 150 -30l-28 -114q-57 24 -111 24q-79 0 -123 -54q-21 -24 -32 -65h249v-71h-264q-1 -10 -1 -31v-16h265v-71
h-251q10 -44 33 -70q45 -51 129 -51q64 0 114 26z" />
    <glyph glyph-name="uni20B9" unicode="&#x20b9;" horiz-adv-x="555" 
d="M521 588h-157q33 -37 42 -91h115v-71h-116q-11 -72 -63.5 -115t-129.5 -48q92 -95 227 -263h-164q-117 144 -217 250v103h62q120 0 140 73h-202v71h198q-26 56 -122 56h-76v106h463v-71z" />
    <glyph glyph-name="uni2113" unicode="&#x2113;" horiz-adv-x="555" 
d="M253 495v-142q89 95 89 192q0 36 -11 55.5t-29 19.5q-49 0 -49 -125zM456 192l69 -67q-80 -136 -229 -136t-182 143q0 4 -1 6q-16 -11 -48 -31l-40 80l85 60v228q0 123 51 184.5t137 61.5q72 0 114.5 -47.5t42.5 -127.5q0 -87 -49 -163t-153 -165v-13q1 -45 22.5 -68
t57.5 -23q63 0 123 78z" />
    <glyph glyph-name="uni2116" unicode="&#x2116;" horiz-adv-x="969" 
d="M770 635q79 0 126 -48t47 -125q0 -89 -49.5 -134t-126.5 -45t-126 46t-49 127q0 82 49 130.5t129 48.5zM768 560q-28 0 -43 -32t-15 -71q0 -42 16.5 -71t41.5 -29q28 0 43 28t15 74q0 41 -15 71t-43 30zM916 168h-295v75h295v-75zM196 0h-131v650h166l106 -240
q33 -74 86 -218l2 1q-11 113 -11 276v181h130v-650h-152l-112 248q-26 58 -87 224h-3q6 -123 6 -286v-186z" />
    <glyph glyph-name="trademark" unicode="&#x2122;" horiz-adv-x="650" 
d="M27 674h238v-67h-78v-206h-83v206h-77v67zM639 401h-80l-5 120v50t-1 56h-5q-22 -101 -23 -106l-28 -115h-79l-25 116q-6 39 -17 105h-5q0 -44 -2 -106l-6 -120h-78l17 273h128l18 -67q7 -28 16 -88h1q11 53 20 88l20 67h119z" />
    <glyph glyph-name="Omega" unicode="&#x2126;" horiz-adv-x="744" 
d="M331 0h-299v115h133v4q-50 40 -85.5 104t-35.5 146q0 133 94 224.5t240 91.5q148 0 234.5 -90t86.5 -215q0 -155 -122 -261v-4h135v-115h-297v89q127 97 127 261q0 89 -46 151.5t-121 62.5q-77 0 -125 -61.5t-48 -152.5q0 -80 37.5 -153.5t91.5 -107.5v-89z" />
    <glyph glyph-name="estimated" unicode="&#x212e;" horiz-adv-x="817" 
d="M782 316h-605q-5 0 -5 -4v-183q0 -10 9 -21q93 -99 229 -99q145 0 240 111h55q-52 -61 -130 -96t-166 -35q-155 0 -264.5 98.5t-109.5 237.5t109.5 237.5t264.5 98.5t264 -98.5t109 -237.5v-9zM646 340v184q0 12 -10 22q-95 95 -226 95q-133 0 -228 -98q-10 -10 -10 -23
v-180q0 -5 5 -5h464q5 0 5 5z" />
    <glyph glyph-name="partialdiff" unicode="&#x2202;" horiz-adv-x="579" 
d="M91 572l-44 102q84 58 197 58q128 0 213 -99t85 -261q0 -181 -86 -282t-213 -101q-105 0 -163 68.5t-58 154.5q0 105 61.5 176t160.5 71q53 0 90.5 -23t56.5 -52h1v17q0 92 -46 149.5t-122 57.5q-72 0 -133 -36zM259 111q45 0 78 47t40 111q-9 28 -35 50.5t-62 22.5
q-46 0 -75.5 -38t-29.5 -94q0 -46 23.5 -72.5t60.5 -26.5z" />
    <glyph glyph-name="Delta" unicode="&#x2206;" horiz-adv-x="631" 
d="M589 0h-547v76l185 576h182l180 -575v-77zM426 124l-74 245q-15 51 -41 160h-3l-37 -151l-77 -254h232z" />
    <glyph glyph-name="product" unicode="&#x220f;" horiz-adv-x="663" 
d="M651 525h-93v-615h-141v615h-173v-615h-141v615h-93v125h641v-125z" />
    <glyph glyph-name="summation" unicode="&#x2211;" horiz-adv-x="543" 
d="M539 -90h-524v86l217 281l-206 274v99h487v-125h-294v-3l177 -239l-187 -244v-4h330v-125z" />
    <glyph glyph-name="minus" unicode="&#x2212;" horiz-adv-x="596" 
d="M40 314h516v-94h-516v94z" />
    <glyph glyph-name="uni2215" unicode="&#x2215;" horiz-adv-x="125" 
d="M-81 -11h-82l369 672h83z" />
    <glyph glyph-name="uni2219" unicode="&#x2219;" horiz-adv-x="260" 
d="M130 167q-40 0 -65 26t-25 66t25.5 66.5t64.5 26.5q40 0 64.5 -26t25.5 -67q0 -40 -25 -66t-65 -26z" />
    <glyph glyph-name="radical" unicode="&#x221a;" horiz-adv-x="589" 
d="M612 840l-228 -919h-102l-158 411l-79 -31l-24 68l176 72l106 -297q11 -31 24 -82h2q14 71 17 85l164 693h102z" />
    <glyph glyph-name="infinity" unicode="&#x221e;" horiz-adv-x="752" 
d="M555 97q-34 0 -70 18t-56 35t-54 49q-2 -2 -18.5 -17.5t-21 -19t-19.5 -16.5t-22 -16.5t-22 -12t-26.5 -11.5t-26.5 -6t-31 -3q-71 0 -116 47.5t-45 119.5q0 69 47.5 118t121.5 49q34 0 70 -18t56 -35t54 -49q2 2 18.5 17.5t21 19t19.5 16.5t22 16.5t22 12t26.5 11.5
t26.5 6t31 3q71 0 116 -47.5t45 -119.5q0 -69 -47.5 -118t-121.5 -49zM553 189q31 0 52 22t21 53q0 33 -20 54t-50 21q-21 0 -45.5 -14t-35.5 -24l-38 -36l18.5 -18.5t23 -22t21 -16.5t27.5 -15t26 -4zM195 189q21 0 45.5 14t35.5 24l38 36l-18.5 18.5t-23 22t-21 16.5
t-27.5 15t-26 4q-31 0 -52 -22t-21 -53q0 -33 20 -54t50 -21z" />
    <glyph glyph-name="integral" unicode="&#x222b;" horiz-adv-x="358" 
d="M350 800l-14 -90q-20 4 -35 4q-33 0 -47 -27q-22 -34 -22 -148q0 -74 7.5 -215.5t7.5 -228.5q0 -126 -34 -185q-40 -75 -132 -75q-44 0 -70 11l16 93q17 -5 39 -5q25 0 43 21q25 33 25 135q0 88 -7 234.5t-7 224.5q0 148 60 214q42 45 113 45q35 0 57 -8z" />
    <glyph glyph-name="approxequal" unicode="&#x2248;" horiz-adv-x="596" 
d="M520 435l56 -59q-27 -43 -69.5 -70.5t-92.5 -27.5q-13 0 -26 2t-22.5 4t-22 7t-18 7.5l-18.5 8.5t-16 8q-3 1 -27.5 12.5t-42.5 16.5t-40 5q-58 0 -111 -64l-51 63q28 41 70.5 67.5t92.5 26.5q20 0 39.5 -4t29.5 -8t30 -13t24 -11q6 -2 22.5 -10t26 -12t26.5 -8t33 -4
q52 0 107 63zM524 223l54 -57q-27 -45 -70.5 -72.5t-93.5 -27.5q-15 0 -29 2t-28 7l-22 8t-23.5 10t-19.5 9q-5 2 -22.5 10.5t-27 12t-27 7.5t-34.5 4q-56 0 -110 -63l-51 64q28 40 71.5 66.5t91.5 26.5q16 0 30.5 -2t28.5 -7l22.5 -8t22.5 -10t19 -9t22 -10t26.5 -12
t26.5 -8t33 -4q62 0 110 63z" />
    <glyph glyph-name="notequal" unicode="&#x2260;" horiz-adv-x="596" 
d="M556 115h-309l-62 -101h-98l65 101h-112v93h172l75 119h-247v93h307l62 102h98l-65 -102h114v-93h-174l-76 -119h250v-93z" />
    <glyph glyph-name="lessequal" unicode="&#x2264;" horiz-adv-x="596" 
d="M538 118l-480 176v91l480 177v-102l-351 -119v-2l351 -120v-101zM538 0h-479v87h479v-87z" />
    <glyph glyph-name="greaterequal" unicode="&#x2265;" horiz-adv-x="596" 
d="M538 294l-480 -176v101l351 120v2l-351 119v102l480 -177v-91zM537 0h-479v87h479v-87z" />
    <glyph glyph-name="lozenge" unicode="&#x25ca;" horiz-adv-x="574" 
d="M534 324l-192 -362h-111l-191 362l191 362h111zM412 321l-113 226q-11 24 -13 31h-2q-13 -29 -14 -31l-109 -220l112 -226q8 -15 14 -30h2q6 12 14 30z" />
    <glyph glyph-name="G_tildecomb" unicode="&#xe000;" horiz-adv-x="682" 
d="M629 386v-355q-112 -38 -225 -38q-180 0 -274 91q-97 90 -95 245q1 164 108 258t277 94q119 0 187 -33l-32 -122q-67 29 -157 29q-99 0 -161 -56t-62 -162q0 -103 58.5 -162t153.5 -59q55 0 75 10v141h-104v119h251zM316 715h-70q-2 61 19 94t58 33q29 0 64 -20
q30 -19 44 -19q13 0 18.5 9t8.5 34h68q4 -125 -79 -125q-31 0 -65 19q-34 18 -42 18q-21 0 -24 -43z" />
    <glyph glyph-name="M_uni0302" unicode="&#xe001;" horiz-adv-x="846" 
d="M646 0l-10 258q-6 162 -6 277h-3q-31 -128 -75 -261l-82 -263h-119l-72 261q-38 136 -61 263h-2q-1 -12 -5 -120.5t-7 -158.5l-12 -256h-141l43 674h203l66 -225q38 -142 57 -241h3q34 140 64 242l72 224h199l37 -674h-149zM365 833h115l101 -123h-107l-51 62h-2l-50 -62
h-106z" />
    <glyph glyph-name="N_uni0302" unicode="&#xe002;" horiz-adv-x="690" 
d="M206 0h-140v674h178l140 -247q63 -112 110 -231h3q-13 116 -13 281v197h140v-674h-160l-144 260q-71 128 -117 238l-3 -1q6 -133 6 -294v-203zM288 833h114l101 -123h-107l-50 62h-2l-50 -62h-106z" />
    <glyph glyph-name="g_tildecomb" unicode="&#xe005;" horiz-adv-x="585" 
d="M393 489h132q-5 -52 -5 -145v-273q0 -154 -74 -220q-70 -60 -198 -60q-111 0 -176 38l30 115q64 -37 142 -37q57 0 92 32t35 97v32h-2q-45 -64 -132 -64q-91 0 -149 66.5t-58 172.5q0 115 64 186t157 71t134 -69h2zM368 218v72q0 16 -3 28q-17 67 -82 67q-43 0 -71 -37
t-28 -102q0 -57 26.5 -93.5t72.5 -36.5q29 0 51 17.5t30 44.5q4 15 4 40zM222 558h-72q-2 62 20.5 96.5t61.5 34.5q25 0 65 -20q32 -20 42 -20q13 0 19 9.5t7 35.5h70q4 -129 -82 -129q-27 0 -69 22q-27 16 -38 16q-22 0 -24 -45z" />
    <glyph glyph-name="m_uni0302" unicode="&#xe006;" horiz-adv-x="860" 
d="M61 0v333q0 70 -4 156h128l7 -66h3q52 77 148 77q47 0 82.5 -22t51.5 -61h2q26 37 63 59q40 24 93 24q74 0 119.5 -53.5t45.5 -158.5v-288h-148v266q0 112 -72 112q-25 0 -43.5 -15t-26.5 -38q-6 -17 -6 -39v-286h-148v274q0 104 -70 104q-51 0 -71 -55q-6 -14 -6 -38
v-285h-148zM379 702h103l99 -152h-99l-51 87h-2l-50 -87h-99z" />
    <glyph glyph-name="n_uni0302" unicode="&#xe007;" horiz-adv-x="586" 
d="M242 702h102l99 -152h-99l-50 87h-2l-50 -87h-99zM61 0v333q0 70 -4 156h132l7 -67h3q19 30 58 54t93 24q79 0 127 -53t48 -157v-290h-152v271q0 106 -77 106q-29 0 -48.5 -16.5t-28.5 -40.5q-6 -14 -6 -38v-282h-152z" />
    <glyph glyph-name="zero.slashfitted" unicode="&#xe008;" horiz-adv-x="555" 
d="M186 240l158 264q-20 42 -66 42q-48 0 -74.5 -57.5t-26.5 -162.5q0 -50 9 -86zM371 414l-160 -270q24 -40 66 -40q47 0 74 56.5t27 165.5q0 43 -7 88zM280 661q51 0 92 -17.5t68.5 -48t46 -73.5t27 -91t8.5 -103q0 -156 -63 -247.5t-184 -91.5q-120 0 -181 94t-62 241
q0 149 63.5 243t184.5 94z" />
    <glyph glyph-name="dong.alt" unicode="&#xe184;" horiz-adv-x="555" 
d="M340 675h127v-57h64v-72h-64v-285q0 -71 3 -107h-114l-5 52h-2q-36 -60 -121 -60q-70 0 -117.5 50.5t-47.5 132.5q0 88 50.5 139.5t123.5 51.5q70 0 101 -41h2v67h-119v72h119v57zM340 316v41q0 8 -2 20q-5 21 -24.5 36t-44.5 15q-37 0 -57 -26.5t-20 -68.5t21 -66.5
t55 -24.5q25 0 45 14t24 36q3 10 3 24z" />
    </font>
</defs>
</svg>
